Синяя птица [10 сезон: 1-5 выпуск из 5] (2023) WEBRip от Files-x

Reply to topic
 
Author Message

bond74 ®

Gender: Male

Longevity: 5 years 3 months

Posts: 2266

Post 29-Nov-2023 00:50

[Quote]

Синяя птица Год выпуска: 2023
Жанр: ТВ-шоу, детский, музыкальный
Выпущено: Россия, ВГТРК
Ведущий: Дарья Спиридонова
Описание: Всероссийский конкурс юных талантов. Главная задача конкурса – открыть новые имена юных артистов, которые через несколько лет станут мировыми звездами. "Синяя Птица" поможет сбыться мечтам юных участников! Каждый ребенок талантлив по-своему. Но есть дети, которые уже в раннем возрасте поражают окружающих редкой музыкальностью, чувством ритма, пластикой, отточенностью движений. Именно они, юные таланты со всей страны, прошедшие кастинг, выбранные из огромного количества претендентов, стали участниками нового уникального проекта – Всероссийского открытого конкурса "Синяя Птица". Всем артистам не более 15 лет.
Качество: WEBRip
Видео: XviD, 1600 Кбит/с, 720x400
Аудио: AC3, 2 ch, 192 Кбит/с
Продолжительность: 1 х ~ 01:30:00
Перевод: Не требуется
Субтитры: Нет

Скриншоты


MediaInfo

Общее
Полное имя : C:\ШОУ\Синяя птица.s10.2023.WEB-DLRipp.Files-x\01. Синяя птица.s10.2023.WEB-DLRipp.Files-x.avi
Формат : AVI
Формат/Информация : Audio Video Interleave
Настройки формата : BitmapInfoHeader / WaveFormatEx
Размер файла : 886 Мбайт
Продолжительность : 1 ч. 8 м.
Общий поток : 1 802 Кбит/сек
Частота кадров : 25,000 кадров/сек
Программа кодирования : VirtualDubMod 1.5.10.3 | www.virtualdub-fr.org || (build 2550/release)
Библиотека кодирования : VirtualDubMod build 2550/release
Видео
Идентификатор : 0
Формат : MPEG-4 Visual
Профиль формата : Advanced Simple@L5
Настройки формата : BVOP1 / Custom Matrix
Параметр BVOP формата : 1
Параметр QPel формата : Нет
Параметр GMC формата : Без точки перехода
Параметр матрицы формата : Выборочная
Идентификатор кодека : XVID
Идентификатор кодека/Подсказка : XviD
Продолжительность : 1 ч. 8 м.
Битрейт : 1 600 Кбит/сек
Ширина : 720 пикселей
Высота : 400 пикселей
Соотношение сторон : 16:9
Частота кадров : 25,000 кадров/сек
Цветовое пространство : YUV
Субдискретизация насыщенности : 4:2:0
Битовая глубина : 8 бит
Тип развёртки : Прогрессивная
Метод сжатия : С потерями
Бит/(Пиксели*Кадры) : 0.222
Размер потока : 787 Мбайт (89%)
Библиотека кодирования : XviD 73
Аудио
Идентификатор : 1
Формат : AC-3
Формат/Информация : Audio Coding 3
Коммерческое название : Dolby Digital
Идентификатор кодека : 2000
Продолжительность : 1 ч. 8 м.
Вид битрейта : Постоянный
Битрейт : 192 Кбит/сек
Каналы : 2 канала
Channel layout : L R
Частота : 48,0 КГц
Частота кадров : 31,250 кадров/сек (1536 SPF)
Метод сжатия : С потерями
Размер потока : 94,5 Мбайт (11%)
Выравнивание : Разделение по промежуткам
Продолжительность промежутка : 40 мс. (1,00 видеокадр)
Время предзагрузки промежутка : 500 мс.
Service kind : Complete Main

Внимание! Раздача ведётся путём добавления новых серий

Раздача ведётся путём добавления новых серий, при каждом добавлении создаётся новый торрент. Чтобы начать докачку новой серии, пользователям необходимо сделать следующее:
- Остановить скачивание.
- Удалить старый торрент у себя из клиента (старые серии удалять не надо).
- Скачать новый торрент и запустить его у себя в клиенте вместо старого, при этом указать клиенту путь в старую папку куда и должно происходить скачивание новых серий.
Ваш клиент при этом должен произвести хеширование (проверку) старой папки (если не производит сам - помогите ему сделать это), и будет докачивать только те серии которых у вас ещё нет. Старые серии при этом не удаляются, а продолжают раздаваться!
Релиз от:

Release was prepared by RG Files-x

[Profile] [PM]

HardwareMining

Gender: Male

Longevity: 4 years 4 months

Posts: 589

Post 29-Nov-2023 10:44 (after 9 hours)

[Quote]

bond74

С телефона не удобно
[Profile] [PM]
Display posts:    
Reply to topic

Current time is: 02-Mar 06:55

All times are UTC + 3



You cannot post new topics in this forum
You cannot reply to topics in this forum
You cannot edit your posts in this forum
You cannot delete your posts in this forum
You cannot vote in polls in this forum
You cannot attach files in this forum
You cannot download files in this forum