Полярный [3 сезон: 1-16 серии из 16] (2023) WEBRip-AVC от Generalfilm | КПК

Reply to topic
 
Author Message

GORGIK ®

Gender: Male

Longevity: 5 years 3 months

Posts: 1459

Location: СССР

Post 04-Dec-2023 09:23

[Quote]

Полярный Год выпуска: 2023
Жанр: Комедия
Выпущено: Россия, Кинокомпания "1-2-3 Production"
Режиссер: Илья Аксёнов
В ролях: Михаил Пореченков, Иван Охлобыстин, Катерина Шпица, Ян Цапник, Александр Ратников, Елена Воробей, Мария Кравченко, Софья Зайка, Карина Зверева, Сергей Козик, Антон Богданов, Жаргал Бадмацыренов, Светлана Листова, Борис Каморзин, Денис Пьянов, Юрий Назаров, Филипп Дьячков, Демис Карибидис, Ренат Мухамбаев, Сергей Черданцев, Ярослав Печенин, Александр Аноприков, Иван Алексеев (III), Алексей Онежен, Дмитрий Колчин
О фильме: Витя теперь не просто лучший фермер Заполярья, но и счастливый отец. Однако насладиться семейной идиллией снова не получится. По личной просьбе губернатора Витя становится мэром Полярного. Витя и так не восторге от новой должности, а тут ещё выясняется, что предыдущий мэр оставил после себя многомиллионную дыру в городском бюджете. Витя хочет сложить с себя полномочия, но когда понимает, что перешёл дорогу влиятельному и нечистому на руку бизнесмену Ломаеву, то решает остаться на посту мэра Полярного, чтобы спасти его жителей от выселения из собственных домов. Но беда не приходит одна. В третьем сезоне Вите предстоит познакомиться с мамой Полины – преподавателем литературы на пенсии. Однако даже новый высокий пост не помогает Громову соответствовать высоким стандартам его тещи.

Качество: WEBRip-AVC
Видео: MPEG-4 AVC (x264), 640x312, 640x360, ~ 500 kbps, 25.000 fps
Аудио: AAC LC, 48.0 KHz, 2 ch, 128 Kbps
Продолжительность: 16 x ~ 00:24:00
Перевод: Не требуется [Русский]
Cубтитры: нет

Скриншоты


MediaInfo

Complete name : D:\кино\Polyarnyi.S03.2023.WEBRip-AVC.KPK.GF\Polyarnyi.s03e01.2023.WEBRip-AVC.KPK.GF.mp4
Format : MPEG-4
Codec ID : M4V (isom/iso2/avc1)
File size : 110 MiB
Duration : 24mn 16s
Overall bit rate mode : Variable
Overall bit rate : 633 Kbps
Writing application : Lavf53.19.0
Video
ID : 1
Format : AVC
Format/Info : Advanced Video Codec
Format profile : High@L4.1
Format settings, CABAC : Yes
Format settings, ReFrames : 8 frames
Codec ID : avc1
Codec ID/Info : Advanced Video Coding
Duration : 24mn 16s
Bit rate : 500 Kbps
Width : 640 pixels
Height : 360 pixels
Display aspect ratio : 16:9
Frame rate mode : Constant
Frame rate : 25.000 fps
Color space : YUV
Chroma subsampling : 4:2:0
Bit depth : 8 bits
Scan type : Progressive
Bits/(Pixel*Frame) : 0.087
Stream size : 86.7 MiB (79%)
Writing library : x264 core 146 r2538 121396c
Encoding settings : cabac=1 / ref=8 / deblock=1:-1:-1 / analyse=0x3:0x133 / me=umh / subme=10 / psy=1 / psy_rd=1.00:0.00 / mixed_ref=1 / me_range=24 / chroma_me=1 / trellis=2 / 8x8dct=1 / cqm=0 / deadzone=21,11 / fast_pskip=1 / chroma_qp_offset=-2 / threads=3 / lookahead_threads=1 / sliced_threads=0 / nr=0 / decimate=1 / interlaced=0 / bluray_compat=0 / constrained_intra=0 / bframes=8 / b_pyramid=2 / b_adapt=2 / b_bias=0 / direct=3 / weightb=1 / open_gop=0 / weightp=2 / keyint=250 / keyint_min=126 / scenecut=40 / intra_refresh=0 / rc_lookahead=40 / rc=2pass / mbtree=1 / bitrate=500 / ratetol=1.0 / qcomp=0.60 / qpmin=0 / qpmax=69 / qpstep=4 / cplxblur=20.0 / qblur=0.5 / ip_ratio=1.40 / aq=1:1.00
Menus : 3
Audio
ID : 2
Format : AAC
Format/Info : Advanced Audio Codec
Format profile : LC
Codec ID : 40
Duration : 24mn 16s
Bit rate mode : Variable
Bit rate : 128 Kbps
Channel(s) : 2 channels
Channel positions : Front: L R
Sampling rate : 48.0 KHz
Frame rate : 46.875 fps (1024 spf)
Compression mode : Lossy
Stream size : 22.2 MiB (20%)
Default : Yes
Alternate group : 1
Menus : 3

Внимание! Раздача ведётся путём добавления новых серий

Раздача ведётся путём добавления новых серий, при каждом добавлении создаётся новый торрент. Чтобы начать докачку новой серии, пользователям необходимо сделать следующее:
- Остановить скачивание.
- Удалить старый торрент у себя из клиента (старые серии удалять не надо).
- Скачать новый торрент и запустить его у себя в клиенте вместо старого, при этом указать клиенту путь в старую папку куда и должно происходить скачивание новых серий.
Ваш клиент при этом должен произвести хеширование (проверку) старой папки (если не производит сам - помогите ему сделать это), и будет докачивать только те серии которых у вас ещё нет. Старые серии при этом не удаляются, а продолжают раздаваться!
Релиз от:
[Profile] [PM]

GORGIK ®

Gender: Male

Longevity: 5 years 3 months

Posts: 1459

Location: СССР

Post 07-Dec-2023 20:30 (after 3 days)

[Quote]

Весь сезон
[Profile] [PM]
Display posts:    
Reply to topic

Current time is: 02-Mar 06:43

All times are UTC + 3



You cannot post new topics in this forum
You cannot reply to topics in this forum
You cannot edit your posts in this forum
You cannot delete your posts in this forum
You cannot vote in polls in this forum
You cannot attach files in this forum
You cannot download files in this forum