Тайны следствия [23 сезон: 1-16 серии из 16] (2023) WEBRip 720p от Files-x

Reply to topic
 
Author Message

bond74 ®

Gender: Male

Longevity: 5 years 3 months

Posts: 2266

Post 07-Dec-2023 18:34

[Quote]

Тайны следствия
Год выпуска: 2023
Жанр: Детектив, драма, криминал
Выпущено: Россия, Кинокомпания «Норд фильм», Студия «Единственный дубль»
Режиссер: Максим Демченко
В ролях: Анна Ковальчук, Игорь Николаев (II), Александр Новиков (II), Алексей Комашко, Ольга Павловец, Андрей Шарков, Вячеслав Захаров, Степан Пивкин, Наталья Ионова, Злата Ильченко, Светлана Щедрина, Екатерина Копанова, Сергей Перегудов, Александр Кононец, Михаил Владимиров
О фильме: После очередного расставания с Луганским в жизни Марии Сергеевны вскоре появляется новый поклонник Васнецов, но Швецова не воспринимает его всерьёз, стараясь разобраться в себе и своих чувствах. Тем временем отношения между Платоновым и психологом Верой Черняевой продолжают набирать обороты, а новый криминалист Аркадий Башмаков с первого взгляда влюбляется в Людмилу Колонкову . Но страсти кипят не только на личном фронте: вместе с командой оперов под бессменным руководством Кораблёва Мария Сергеевна каждый день сталкивается с изощрёнными преступниками и распутывает сложнейшие дела, которые для всех прочих, как всегда, являются тайной следствия…

Качество: WEBRip 720p
Видео: MPEG-4 AVC, ~ 1758 Кбит/с, 1280x720, 25 кадр/с
Аудио: AC3, 2 ch, 192 Кбит/с
Продолжительность: 1 x ~ 00:52:52
Перевод: Не требуется
Субтитры: Нет

Скриншоты




MediaInfo

Общее
Уникальный идентификатор : 175596159597503291364515790578906980737 (0x841A97169D5DFB69B0F5ECD0AB4E6181)
Полное имя : C:\films\Тайны следствия .S23.2023.WEB-DL 720p.Files-x\03. Тайны следствия .S23.2023.WEB-DL 720p.Files-x.mkv
Формат : Matroska
Версия формата : Version 2
Размер файла : 745 Мбайт
Продолжительность : 52 м. 20 с.
Режим общего битрейта : Переменный
Общий поток : 1 990 Кбит/сек
Частота кадров : 25,000 кадров/сек
Дата кодирования : 2023-12-07 11:11:21 UTC
Программа кодирования : mkvmerge v7.8.0 ('River Man') 32bit built on Apr 3 2015 12:11:22
Библиотека кодирования : libebml v1.3.1 + libmatroska v1.4.2
Видео
Идентификатор : 1
Формат : AVC
Формат/Информация : Advanced Video Codec
Профиль формата : High@L3.1
Настройки формата : CABAC / 2 Ref Frames
Параметр CABAC формата : Да
Параметр RefFrames формата : 2 кадра
Идентификатор кодека : V_MPEG4/ISO/AVC
Продолжительность : 52 м. 20 с.
Вид битрейта : Переменный
Битрейт : 1 758 Кбит/сек
Максимальный битрейт : 2 400 Кбит/сек
Ширина : 1 280 пикселей
Высота : 720 пикселей
Соотношение сторон : 16:9
Режим частоты кадров : Постоянный
Частота кадров : 25,000 кадров/сек
Цветовое пространство : YUV
Субдискретизация насыщенности : 4:2:0
Битовая глубина : 8 бит
Тип развёртки : Прогрессивная
Бит/(Пиксели*Кадры) : 0.076
Размер потока : 658 Мбайт (88%)
Default : Да
Forced : Нет
Аудио
Идентификатор : 2
Формат : AC-3
Формат/Информация : Audio Coding 3
Коммерческое название : Dolby Digital
Идентификатор кодека : A_AC3
Продолжительность : 52 м. 20 с.
Вид битрейта : Постоянный
Битрейт : 192 Кбит/сек
Каналы : 2 канала
Channel layout : L R
Частота : 48,0 КГц
Частота кадров : 31,250 кадров/сек (1536 SPF)
Метод сжатия : С потерями
Задержка видео : -33 мс.
Размер потока : 71,9 Мбайт (10%)
Service kind : Complete Main
Default : Да
Forced : Нет

Раздача ведётся путём добавления новых серий

Внимание! Раздача ведётся путём добавления новых серий; при каждом добавлении создаётся новый торрент.
Чтобы начать докачку новой серии, пользователям необходимо сделать следующее:
1. Остановить скачивание;
2. Удалить старый торрент у себя из клиента (старые серии удалять не надо);
3. Скачать новый торрент и запустить его у себя в клиенте вместо старого, при этом указать клиенту путь в старую папку куда и должно происходить скачивание новых серий. Ваш клиент при этом должен произвести хеширование (проверку) старой папки и будет докачивать только те серии, которых у вас ещё нет. Старые серии при этом не удаляются, а продолжают раздаваться! Eсли вы уже удалили старые серии, то предотвратить повторную закачку старых серий можно, отжав галочку в соответствующих местах при запуске нового торрента.
Релиз от:

Release was prepared by RG Files-x

[Profile] [PM]
Display posts:    
Reply to topic

Current time is: 02-Mar 07:13

All times are UTC + 3



You cannot post new topics in this forum
You cannot reply to topics in this forum
You cannot edit your posts in this forum
You cannot delete your posts in this forum
You cannot vote in polls in this forum
You cannot attach files in this forum
You cannot download files in this forum