Султан моего сердца / Kalbimin Sultanı [1-24 серии из 24] (2018) WEBRip от Files-x l Первый канал

Ответить на тему
 
Автор Сообщение

papa1951deda ®

Пол: Мужской

Стаж: 4 месяца 5 дней

Сообщений: 203

Откуда: Казахстан

Создавать темы 09-Янв-2019 17:48

[Цитировать]

Султан моего сердца Год выпуска: 2018
Жанр: Историческая мелодрама
Выпущено: Россия, Турция, Киностудия КИТ, Maya Productions, Global Connection International Media Group.
Режиссёр: Керем Чакироглу
В ролях: Александра Никифорова, Али Эрсан Дуру, Эмель Чольгечен, Тансель Онгель, Дмитрий Щербина, Андрей Руденский, Александр Соколовский, Олеся Фаттахова, Илья Шакунов, Бесте Кёкдемир, Тунджер Салман, Танер Румели, Бюлент Сейран
О фильме: Стамбул, начало XIX века. Анна — дочь одного из чиновников, работающих в посольстве Российской империи. Она случайно знакомится с османским султаном Махмудом II. Впечатленный интеллектом и знаниями девушки, правитель приглашает ее работать учительницей его детей, но она поначалу отказывается и уступает только после того, как на нее начинает давить русский посол Дмитрий. Во время работы во дворце Анна понимает, что начинает влюбляться в Махмуда. Но она сталкивается с массой проблем, ведь дети султана не слушаются чужестранку, а обитательницы гарема воспринимают ее как соперницу. Этому есть причина: сам Махмуд тоже влюбляется в новую учительницу.
Качество: WEBRip
Видео: XviD, ~ 1 595 Кбит/с, 720x400, 25 кадр/с
Аудио: Русский (AC3, 2 ch, 192 Кбит/с)
Продолжительность: х ~ 00:50:00 серия
Перевод: Профессиональный многоголосый
Субтитры: Нет

Скриншоты

MediaInfo

General
Complete name : D:\моё видио\Султан моего сердца (2018)\ 02. Султан моего сердца. (2018).WEBDLRip..avi
Format : AVI
Format/Info : Audio Video Interleave
File size : 649 MiB
Duration : 50mn 30s
Overall bit rate : 1 798 Kbps
Movie name : Sultan.moego.serdca.e02.2018.WEB-DL.(720p).Getty
Writing application : Lavf58.25.100
Video
ID : 0
Format : MPEG-4 Visual
Format profile : Simple@L3
Format settings, BVOP : No
Format settings, QPel : No
Format settings, GMC : No warppoints
Format settings, Matrix : Default (H.263)
Codec ID : XVID
Codec ID/Hint : XviD
Duration : 50mn 30s
Bit rate : 1 595 Kbps
Width : 720 pixels
Height : 400 pixels
Display aspect ratio : 16:9
Frame rate : 25.000 fps
Color space : YUV
Chroma subsampling : 4:2:0
Bit depth : 8 bits
Scan type : Progressive
Compression mode : Lossy
Bits/(Pixel*Frame) : 0.222
Stream size : 576 MiB (89%)
Writing library : XviD 67
Audio
ID : 1
Format : AC-3
Format/Info : Audio Coding 3
Mode extension : CM (complete main)
Format settings, Endianness : Big
Codec ID : 2000
Duration : 50mn 30s
Bit rate mode : Constant
Bit rate : 192 Kbps
Channel(s) : 2 channels
Channel positions : Front: L R
Sampling rate : 48.0 KHz
Bit depth : 16 bits
Compression mode : Lossy
Stream size : 69.4 MiB (11%)
Alignment : Aligned on interleaves
Interleave, duration : 32 ms (0.80 video frame)
Релиз от:

Релиз подготовлен R.G.Files-x



Последний раз редактировалось: papa1951deda (2019-01-25 13:14), всего редактировалось 5 раз(а)
[Профиль] [ЛС]

papa1951deda ®

Пол: Мужской

Стаж: 4 месяца 5 дней

Сообщений: 203

Откуда: Казахстан

Создавать темы 12-Янв-2019 16:26 (спустя 2 дня 22 часа)

[Цитировать]

Добавлены 19-24 серии
[Профиль] [ЛС]
Показать сообщения:    
Ответить на тему

Текущее время: 26-Мар 04:17

Часовой пояс: UTC + 3



Вы не можете начинать темы
Вы не можете отвечать на сообщения
Вы не можете редактировать свои сообщения
Вы не можете удалять свои сообщения
Вы не можете голосовать в опросах
Вы не можете прикреплять файлы к сообщениям
Вы не можете скачивать файлы