Френдзона [2 сезон: 1-8 серии из 8] (2024) WEBRip 720p от Files-х

Reply to topic
 
Author Message

bond74 ®

Gender: Male

Longevity: 5 years 5 months

Posts: 2364

Post 01-Feb-2024 11:08

[Quote]

Френдзона Год выпуска: 2024
Жанр: Драма, мелодрама
Выпущено: Россия, ИП Гайдарова К.М.
Режиссер: Фёдор Кравчук, Никита Кравчук, Малика Мухамеджан, Грант Варжапетян, Полина Халенко
В ролях: Алексей Славкин, Влада Ерофеева, Тарас Шевченко (III), Константин Мирошников, Екатерина Круглова, Наталия Вдовина, Ксения Гусева, Марина Чирикова, Глеб Шевнин, Сергей Новосад, Михаил Кочетков (III), Ольга Васильева (III), Вадим Медведев (II), Даня Юртаева
О сериале: Спустя год после событий первого сезона Кирилл, с позором отчисленный с психфака, оказывается в тупике: работа барменом не приносит удовольствия, друзья отдаляются, а любимая девушка Марина бежит от него в день, когда он собирался сделать ей предложение. Чтобы вернуть ее, Кирилл решает разобраться, почему одни люди уходят от других. Ради этого он едет в Геленджик к маме, когда-то также бросившей его.
Качество: WEBRip 720p
Видео: MPEG-4 AVC, ~ 2300 Кбит/с, 1280x720
Аудио: AC3, 2 ch, 192 Кбит/с
Продолжительность: 3 х ~ 00:24:00
Язык: Русский

Скриншоты



MediaInfo

Общее
Уникальный идентификатор : 191997622195423533071633743296056923438 (0x907165A0B9CF38638C18900AB71E152E)
Полное имя : C:\films\Френдзона .S02.2024.WEBRip 720p.Files-x\03. Френдзона .S02.2024.WEBRip 720p.Files-x.mkv
Формат : Matroska
Версия формата : Version 4
Размер файла : 417 Мбайт
Продолжительность : 24 м. 45 с.
Общий поток : 2 355 Кбит/сек
Частота кадров : 24,000 кадра/сек
Дата кодирования : 2024-01-31 14:57:41 UTC
Программа кодирования : mkvmerge v7.8.0 ('River Man') 32bit built on Apr 3 2015 12:11:22
Библиотека кодирования : libebml v1.3.1 + libmatroska v1.4.2
Видео
Идентификатор : 1
Формат : AVC
Формат/Информация : Advanced Video Codec
Профиль формата : Main@L3.1
Настройки формата : CABAC / 4 Ref Frames
Параметр CABAC формата : Да
Параметр RefFrames формата : 4 кадра
Идентификатор кодека : V_MPEG4/ISO/AVC
Продолжительность : 24 м. 45 с.
Битрейт : 2 162 Кбит/сек
Номинальный битрейт : 2 300 Кбит/сек
Ширина : 1 280 пикселей
Высота : 720 пикселей
Соотношение сторон : 16:9
Режим частоты кадров : Постоянный
Частота кадров : 24,000 кадра/сек
Цветовое пространство : YUV
Субдискретизация насыщенности : 4:2:0
Битовая глубина : 8 бит
Тип развёртки : Прогрессивная
Бит/(Пиксели*Кадры) : 0.098
Размер потока : 383 Мбайт (92%)
Библиотека кодирования : x264 core 164
Настройки программы : cabac=1 / ref=2 / deblock=1:0:0 / analyse=0x1:0x111 / me=hex / subme=6 / psy=1 / psy_rd=1.00:0.00 / mixed_ref=1 / me_range=16 / chroma_me=1 / trellis=1 / 8x8dct=0 / cqm=0 / deadzone=21,11 / fast_pskip=1 / chroma_qp_offset=-2 / threads=12 / lookahead_threads=2 / sliced_threads=0 / nr=0 / decimate=1 / interlaced=0 / bluray_compat=0 / constrained_intra=0 / bframes=3 / b_pyramid=2 / b_adapt=1 / b_bias=0 / direct=1 / weightb=1 / open_gop=0 / weightp=1 / keyint=250 / keyint_min=24 / scenecut=40 / intra_refresh=0 / rc_lookahead=30 / rc=cbr / mbtree=1 / bitrate=2300 / ratetol=1.0 / qcomp=0.60 / qpmin=0 / qpmax=69 / qpstep=4 / vbv_maxrate=2300 / vbv_bufsize=2990 / nal_hrd=none / filler=0 / ip_ratio=1.40 / aq=1:1.00
Default : Да
Forced : Нет
Цветовой диапазон : Limited
Основные цвета : BT.709
Характеристики трансфера : BT.709
Коэффициенты матрицы : BT.709
Аудио
Идентификатор : 2
Формат : AC-3
Формат/Информация : Audio Coding 3
Коммерческое название : Dolby Digital
Идентификатор кодека : A_AC3
Продолжительность : 24 м. 45 с.
Вид битрейта : Постоянный
Битрейт : 192 Кбит/сек
Каналы : 2 канала
Channel layout : L R
Частота : 48,0 КГц
Частота кадров : 31,250 кадров/сек (1536 SPF)
Метод сжатия : С потерями
Задержка видео : -83 мс.
Размер потока : 34,0 Мбайт (8%)
Service kind : Complete Main
Default : Да
Forced : Нет

Внимание! Раздача ведётся путём добавления новых серий

Раздача ведётся путём добавления новых серий, при каждом добавлении создаётся новый торрент. Чтобы начать докачку новой серии, пользователям необходимо сделать следующее:
- Остановить скачивание.
- Удалить старый торрент у себя из клиента (старые серии удалять не надо).
- Скачать новый торрент и запустить его у себя в клиенте вместо старого, при этом указать клиенту путь в старую папку куда и должно происходить скачивание новых серий.
Ваш клиент при этом должен произвести хеширование (проверку) старой папки (если не производит сам - помогите ему сделать это), и будет докачивать только те серии которых у вас ещё нет. Старые серии при этом не удаляются, а продолжают раздаваться!
Релиз от:

Release was prepared by RG Files-x

[Profile] [PM]
Display posts:    
Reply to topic

Current time is: 20-Apr 16:49

All times are UTC + 3



You cannot post new topics in this forum
You cannot reply to topics in this forum
You cannot edit your posts in this forum
You cannot delete your posts in this forum
You cannot vote in polls in this forum
You cannot attach files in this forum
You cannot download files in this forum