Бедные смеются, богатые плачут [1-16 серии из 16] (2024) WEB-DLRip от Files-x

Reply to topic
 
Author Message

bond74 ®

Gender: Male

Longevity: 5 years 5 months

Posts: 2364

Post 14-Feb-2024 23:15

[Quote]

Бедные смеются, богатые плачут
Год выпуска: 2024
Жанр: Мелодрама, драма, комедия
Выпущено: Россия, Кинокомпания "Good Story Media"
Режиссер: Сергей Куваев, Наталия Вагонова, Анна Лобанова
В ролях: Полина Денисова, Александр Самойленко, Михаил Сотников (II), Анна Снаткина, Алёна Хмельницкая, Серафима Соловьёва, Сергей Ланбамин, Екатерина Стулова, Саша Стоун (II), Ирина Соколова (III), Ананке Арейру, Виктор Васильев (III), Андрей Гальченко, Алина Дулова, Мирко Дзаго
О фильме: Олигарх Сергей нанимает большой штат персонала в свой огромный дом на Рублевке и в скором времени ожидает гостей. Он собирает всю семью: настоящую и бывших жен, а также детей от всех браков, чтобы сообщить им страшную новость - он смертельно болен. Пока между бывшими женами разгорается борьба за наследство, среди персонала тоже назревают интриги. Горничная Катя попадает на эту работу, скрываясь от нехороших людей, которые преследуют ее. К Кате сразу проявляет интерес Миша. Он представляется сотрудником усадьбы, а на самом деле является сыном хозяина. Героев ждут семейные перипетии, любовные интриги, тайны прошлого и неожиданные разоблачения, драматичные и комичные ситуации между богатыми и бедными.

Качество: WEB-DLRip
Видео: XviD, ~ 1600 Кбит/с, 704x352, 25 кадр/с
Аудио: AC3, 2 ch, 192 Кбит/с
Продолжительность: 1 х ~ 00:44:23
Перевод: Не требуется
Cубтитры: Нет

Скриншоты




MediaInfo

Общее
Полное имя : D:\films\Bednye.smeyutsya.bogatye.plachut.S01.WEB-DLRip.Files-x\03 Bednye.smeyutsya.bogatye.plachut.S01.WEB-DLRip.Files-x.avi
Формат : AVI
Формат/Информация : Audio Video Interleave
Настройки формата : BitmapInfoHeader / WaveFormatEx
Размер файла : 534 Мбайт
Продолжительность : 42 м. 2 с.
Общий поток : 1 777 Кбит/сек
Частота кадров : 25,000 кадров/сек
Программа кодирования : VirtualDubMod 1.5.10.3 | www.virtualdub-fr.org || (build 2550/release)
Библиотека кодирования : VirtualDubMod build 2550/release
Видео
Идентификатор : 0
Формат : MPEG-4 Visual
Профиль формата : Advanced Simple@L5
Настройки формата : BVOP1 / Custom Matrix
Параметр BVOP формата : 1
Параметр QPel формата : Нет
Параметр GMC формата : Без точки перехода
Параметр матрицы формата : Выборочная
Идентификатор кодека : XVID
Идентификатор кодека/Подсказка : XviD
Продолжительность : 42 м. 2 с.
Битрейт : 1 575 Кбит/сек
Ширина : 704 пикселя
Высота : 352 пикселя
Соотношение сторон : 2,000
Частота кадров : 25,000 кадров/сек
Цветовое пространство : YUV
Субдискретизация насыщенности : 4:2:0
Битовая глубина : 8 бит
Тип развёртки : Прогрессивная
Метод сжатия : С потерями
Бит/(Пиксели*Кадры) : 0.254
Размер потока : 474 Мбайт (89%)
Библиотека кодирования : XviD 73
Аудио
Идентификатор : 1
Формат : AC-3
Формат/Информация : Audio Coding 3
Коммерческое название : Dolby Digital
Идентификатор кодека : 2000
Продолжительность : 42 м. 2 с.
Вид битрейта : Постоянный
Битрейт : 192 Кбит/сек
Каналы : 2 канала
Channel layout : L R
Частота : 48,0 КГц
Частота кадров : 31,250 кадров/сек (1536 SPF)
Метод сжатия : С потерями
Размер потока : 57,7 Мбайт (11%)
Выравнивание : Разделение по промежуткам
Продолжительность промежутка : 40 мс. (1,00 видеокадр)
Время предзагрузки промежутка : 500 мс.
Service kind : Complete Main

Раздача ведётся путём добавления новых серий

Внимание! Раздача ведётся путём добавления новых серий; при каждом добавлении создаётся новый торрент.
Чтобы начать докачку новой серии, пользователям необходимо сделать следующее:
1. Остановить скачивание;
2. Удалить старый торрент у себя из клиента (старые серии удалять не надо);
3. Скачать новый торрент и запустить его у себя в клиенте вместо старого, при этом указать клиенту путь в старую папку куда и должно происходить скачивание новых серий. Ваш клиент при этом должен произвести хеширование (проверку) старой папки и будет докачивать только те серии, которых у вас ещё нет. Старые серии при этом не удаляются, а продолжают раздаваться! Eсли вы уже удалили старые серии, то предотвратить повторную закачку старых серий можно, отжав галочку в соответствующих местах при запуске нового торрента.
Релиз от:

Release was prepared by RG Files-x

[Profile] [PM]
Display posts:    
Reply to topic

Current time is: 20-Apr 16:58

All times are UTC + 3



You cannot post new topics in this forum
You cannot reply to topics in this forum
You cannot edit your posts in this forum
You cannot delete your posts in this forum
You cannot vote in polls in this forum
You cannot attach files in this forum
You cannot download files in this forum