Верни мою жизнь [1-4 серии из 4] (2018) WEBRip от Files-x

Ответить на тему
 
Автор Сообщение

Nicodem ®

Пол: Мужской

Стаж: 2 месяца 4 дня

Сообщений: 146

Создавать темы 12-Янв-2019 15:16

[Цитировать]

Верни мою жизнь
Год выпуска: 2018
Жанр: Мелодрама
Выпущено: Россия, Украина, VILETON FILMS, Filmstream
Режиссер: Мирослав Малич
В ролях: Олеся Грибок, Любава Грешнова, Александр Константинов, Виталий Кудрявцев, Ирина Мельник, Виктор Жданов (III), Тамара Морозова, Виктор Сарайкин, Елена Хохлаткина, Борис Георгиевский, Анна Яремчук-Бобало, Григорий Боковенко, Екатерина Гулякова, Анна Абрамёнок, Владимир Гладкий, Любовь Тищенко (II), Анатолий Руденко, Роман Кондратюк
О фильме: Две девушки, Рита, дочь рабочих, и Полина, дочь директора завода, борются за внимание одного парня – Юрия. Роковая драка, в которой гибнет отец Риты Лебедев, и получает увечья отец Полины Арсеньев – разделяет жизнь всех героев истории на ДО и ПОСЛЕ... Сможет ли Рита простить Юрия и Полину и отказаться от мести? Сможет ли не утратить веру в любовь и начать жизнь заново?
Качество: WEBRip
Видео: XviD, ~ 1783 Кбит/с, 720x400, 25 кадр/с
Аудио: AC3, 2 ch, 192 Кбит/с
Продолжительность: 4 x ~ 00:50:00
Перевод: Не требуется
Cубтитры: нет

Скриншоты



MediaInfo

General
Complete name : C:\Users\DOM\Desktop\ВИДЕО\Верни мою жизнь.(2018).WEBRip.by.Nicodem.Files-x\01.Верни мою жизнь.(2018).WEBRip.by.Nicodem.Files-x.avi
Format : AVI
Format/Info : Audio Video Interleave
File size : 700 MiB
Duration : 49mn 18s
Overall bit rate : 1 985 Kbps
Writing application : VirtualDubMod 1.5.10.3 | www.virtualdub-fr.org || (build 2550/release)
Writing library : VirtualDubMod build 2550/release
Video
ID : 0
Format : MPEG-4 Visual
Format profile : Advanced Simple@L5
Format settings, BVOP : 1
Format settings, QPel : No
Format settings, GMC : No warppoints
Format settings, Matrix : Custom
Codec ID : XVID
Codec ID/Hint : XviD
Duration : 49mn 18s
Bit rate : 1 783 Kbps
Width : 720 pixels
Height : 400 pixels
Display aspect ratio : 16:9
Frame rate : 25.000 fps
Color space : YUV
Chroma subsampling : 4:2:0
Bit depth : 8 bits
Scan type : Progressive
Compression mode : Lossy
Bits/(Pixel*Frame) : 0.248
Stream size : 629 MiB (90%)
Writing library : XviD 73
Audio
ID : 1
Format : AC-3
Format/Info : Audio Coding 3
Mode extension : CM (complete main)
Codec ID : 2000
Duration : 49mn 18s
Bit rate mode : Constant
Bit rate : 192 Kbps
Channel(s) : 2 channels
Channel positions : Front: L R
Sampling rate : 48.0 KHz
Bit depth : 16 bits
Compression mode : Lossy
Stream size : 67.7 MiB (10%)
Alignment : Split accross interleaves
Interleave, duration : 40 ms (1.00 video frame)
Interleave, preload duration : 500 ms

Раздача ведётся путём добавления новых серий

Внимание! Раздача ведётся путём добавления новых серий; при каждом добавлении создаётся новый торрент.
Чтобы начать докачку новой серии, пользователям необходимо сделать следующее:
1. Остановить скачивание;
2. Удалить старый торрент у себя из клиента (старые серии удалять не надо);
3. Скачать новый торрент и запустить его у себя в клиенте вместо старого, при этом указать клиенту путь в старую папку куда и должно происходить скачивание новых серий. Ваш клиент при этом должен произвести хеширование (проверку) старой папки и будет докачивать только те серии, которых у вас ещё нет. Старые серии при этом не удаляются, а продолжают раздаваться! Eсли вы уже удалили старые серии, то предотвратить повторную закачку старых серий можно, отжав галочку в соответствующих местах при запуске нового торрента.
Релиз от:

Релиз подготовлен R.G.Files-x

[Профиль] [ЛС]
Показать сообщения:    
Ответить на тему

Текущее время: 22-Янв 00:04

Часовой пояс: UTC + 3



Вы не можете начинать темы
Вы не можете отвечать на сообщения
Вы не можете редактировать свои сообщения
Вы не можете удалять свои сообщения
Вы не можете голосовать в опросах
Вы не можете прикреплять файлы к сообщениям
Вы не можете скачивать файлы