Discovery. Охотники за старьем / Salvage Hunters [8 сезон: 1-10 серии из 10] (2016) HDTVRip от GeneralFilm

Ответить на тему
 
Автор Сообщение

Starik60 ®

Пол: Мужской

Стаж: 4 месяца 13 дней

Сообщений: 119

Откуда: Москва, Россия

Создавать темы 12-Янв-2019 17:28

[Цитировать]

Охотники за старьем / Salvage Hunters Год выпуска: 2016
Жанр: Документальный, история, бизнес, антиквариат
Выпущено: Великобритания, Канада, Cineflix Productions Ltd., LF Inc., Discovery Channel
Режиссер: Марк Симард
В ролях: Дрю Причард
О фильме: Дрю Причард один из лучших продавцов винтажных вещей в Британии. Будь это камин из старого особняка или великолепный стеклянный купол в викторианском стиле, Причард охотится за красивыми и эклектичными архитектурными сокровищами и многим другим, тем, что отправляется на свалку во время ремонта. Древние камины, полуразрушенные оранжереи, старинные фонари. У Дрю появляются отличные возможности поторговаться за то, что раньше было прекрасными вещами, а превратилось в хлам. Сможет ли он сбить цену, чтобы потом заработать? Но раз на раз не приходится...

Качество: HDTVRip
Видео: XviD, ~ 1600 Кбит/с, 720x400
Аудио: AC3, 2 ch, 192 Кбит/с
Продолжительность: 10 x ~ 00:44:00
Перевод: Дублированный
Cубтитры: нет

Скриншоты



MediaInfo

General
Complete name : G:\Раздачи 2\Охотники за старьем S08 GeneralFilm\01 Охотники за старьем GeneralFilm.avi
Format : AVI
Format/Info : Audio Video Interleave
File size : 567 MiB
Duration : 44 min 1 s
Overall bit rate : 1 802 kb/s
Writing application : VirtualDubMod 1.5.10.3 | www.virtualdub-fr.org || (build 2550/release)
Writing library : VirtualDubMod build 2550/release
Video
ID : 0
Format : MPEG-4 Visual
Format profile : Advanced Simple@L5
Format settings : BVOP1 / Custom Matrix
Format settings, BVOP : 1
Format settings, QPel : No
Format settings, GMC : No warppoints
Format settings, Matrix : Custom
Codec ID : XVID
Codec ID/Hint : XviD
Duration : 44 min 1 s
Bit rate : 1 600 kb/s
Width : 720 pixels
Height : 400 pixels
Display aspect ratio : 16:9
Frame rate : 25.000 FPS
Color space : YUV
Chroma subsampling : 4:2:0
Bit depth : 8 bits
Scan type : Progressive
Compression mode : Lossy
Bits/(Pixel*Frame) : 0.222
Stream size : 504 MiB (89%)
Writing library : XviD 73
Audio
ID : 1
Format : AC-3
Format/Info : Audio Coding 3
Commercial name : Dolby Digital
Codec ID : 2000
Duration : 44 min 1 s
Bit rate mode : Constant
Bit rate : 192 kb/s
Channel(s) : 2 channels
Channel layout : L R
Sampling rate : 48.0 kHz
Frame rate : 31.250 FPS (1536 SPF)
Bit depth : 16 bits
Compression mode : Lossy
Stream size : 60.5 MiB (11%)
Alignment : Split accross interleaves
Interleave, duration : 40 ms (1.00 video frame)
Interleave, preload duratio : 500 ms
Service kind : Complete Main

Внимание! Раздача ведётся путём добавления новых серий!

Внимание! Раздача ведётся путём добавления новых серий; при каждом добавлении создfётся новый торрент. Чтобы начать докачку новой серии, пользователям необходимо сделать следующее: (1) остановить скачивание, (2) удалить старый торрент у себя из клиента (старые серии удалять не надо), (3) скачать новый торрент и запустить его у себя в клиенте вместо старого, при этом указать клиенту путь в старую папку куда и должно происходить скачивание новых серий.
Ваш клиент при этом должен произвести хеширование (проверку) старой папки (если не производит сам - помогите ему сделать это), и будет докачивать только те серии которых у вас ещё нет. Старые серии при этом не удаляются, а продолжают раздаваться!
Eсли вы уже удалили старые серии, то предотвратить повторную закачку старых серий можно, отжав галочку в соответсвующих местах при запуске нового торрента.
Релиз от:
[Профиль] [ЛС]
Показать сообщения:    
Ответить на тему

Текущее время: 26-Мар 04:17

Часовой пояс: UTC + 3



Вы не можете начинать темы
Вы не можете отвечать на сообщения
Вы не можете редактировать свои сообщения
Вы не можете удалять свои сообщения
Вы не можете голосовать в опросах
Вы не можете прикреплять файлы к сообщениям
Вы не можете скачивать файлы