Новогодний экспресс (Любовь дальнего следования) [1-2 cерии из 2] (2018) WEB-DLRip от Files-x

Ответить на тему
 
Автор Сообщение

papa1951deda ®

Пол: Мужской

Стаж: 2 месяца 1 день

Сообщений: 176

Откуда: Казахстан

Создавать темы 12-Янв-2019 19:33

[Цитировать]

Новогодний экспресс Год выпуска: 2018
Жанр: Мелодрама
Выпущено: Россия, ООО «Калейдоскоп Фильм», ООО «Бабблгам продакшн»
Режиссёр: Дмитрий Булин
В ролях: Ольга Лерман, Евгений Романцов, Дарья Румянцева, Александр Макогон, Ольга Кузьмина, Микаэл Арамян, Александр Арсентьев, Мария Померанцева, Надежда Азоркина, Екатерина Гудина, Инга Фишлер, Виталия Корниенко
О фильме: Кто едет в поезде в новогоднюю ночь? Только неисправимые романтики – или конченые неудачники! Но судьба не просто так собрала 31 декабря в одном составе разных людей с разными историями – на каждого из пассажиров у наступающего года свои планы!
Качество: WEB-DLRip
Видео: XviD, ~ 1600 Кбит/с, 720x400, 25 кадр/с
Аудио: AC3, 2 ch, 192 Кбит/с
Продолжительность: 2 x ~ 01:26:00
Перевод: Не требуется
Субтитры: Нет

Скриншоты


MediaInfo

General
Complete name : D:\моё видио\Новогодний экспресс (2018). WEB-DLRip. Files-x\01. Новогодний экспресс часть.2018. WEB-DLRip. Files-x.avi
Format : AVI
Format/Info : Audio Video Interleave
File size : 1.08 GiB
Duration : 1h 26mn
Overall bit rate : 1 801 Kbps
Writing application : VirtualDubMod 1.5.10.3 | www.virtualdub-fr.org || (build 2550/release)
Writing library : VirtualDubMod build 2550/release
Video
ID : 0
Format : MPEG-4 Visual
Format profile : Advanced Simple@L5
Format settings, BVOP : 1
Format settings, QPel : No
Format settings, GMC : No warppoints
Format settings, Matrix : Custom
Codec ID : XVID
Codec ID/Hint : XviD
Duration : 1h 26mn
Bit rate : 1 600 Kbps
Width : 720 pixels
Height : 400 pixels
Display aspect ratio : 16:9
Frame rate : 25.000 fps
Color space : YUV
Chroma subsampling : 4:2:0
Bit depth : 8 bits
Scan type : Progressive
Compression mode : Lossy
Bits/(Pixel*Frame) : 0.222
Stream size : 985 MiB (89%)
Writing library : XviD 73
Audio
ID : 1
Format : AC-3
Format/Info : Audio Coding 3
Mode extension : CM (complete main)
Format settings, Endianness : Big
Codec ID : 2000
Duration : 1h 26mn
Bit rate mode : Constant
Bit rate : 192 Kbps
Channel(s) : 2 channels
Channel positions : Front: L R
Sampling rate : 48.0 KHz
Bit depth : 16 bits
Compression mode : Lossy
Stream size : 118 MiB (11%)
Alignment : Split accross interleaves
Interleave, duration : 40 ms (1.00 video frame)
Interleave, preload duration : 500 ms
Релиз от:

Релиз подготовлен R.G.Files-x



Последний раз редактировалось: papa1951deda (2019-01-13 13:02), всего редактировалось 1 раз
[Профиль] [ЛС]
Показать сообщения:    
Ответить на тему

Текущее время: 22-Янв 00:04

Часовой пояс: UTC + 3



Вы не можете начинать темы
Вы не можете отвечать на сообщения
Вы не можете редактировать свои сообщения
Вы не можете удалять свои сообщения
Вы не можете голосовать в опросах
Вы не можете прикреплять файлы к сообщениям
Вы не можете скачивать файлы