Новый год, я люблю тебя! (2019) WEB-DLRip-AVC от Files-x

Reply to topic
 
Author Message

Серый1779 ®

Gender: Male

Longevity: 8 months 4 days

Posts: 486

Location: Украина

Post 12-Jan-2019 22:01

[Quote]

Новый год, я люблю тебя! Год выпуска: 2019
Жанр: Мелодрама, альманах
Выпущено: Россия, Красный квадрат
Режиссер: Павел Бардин, Михаил Местецкий, Михаил Сегал, Василий Сигарев, Клим Шипенко
В ролях: Таисия Вилкова, Максим Виторган, Михаил Горевой, Александр Горчилин, Степан Девонин, Фёдор Лавров, Пелагея, Андрей Смоляков, Ольга Сутулова, Альбина Тиханова, Регина Тодоренко, Влад Топалов, Яна Троянова
О фильме: Музыкальный киноальманах из восьми историй о событиях ушедшего года, праздничных чудесах, новых надеждах, творчестве и любви. Альманах «Новый год, я люблю тебя!» состоит из четырех художественных киноновелл и четырех музыкальных зарисовок. Герои фильма отправляются в путешествие по зимней Москве, пишут трогательные письма Деду Морозу и ждут новогодних чудес, которые происходят не только в ночь с 31 декабря на 1 января. В одной истории Ани Лорак и Валерий Меладзе показывают себя с неожиданной стороны, в другой – Пелагея оказывается в аэропорту, где слышит пронзительные истории любви, а в третьей – авторы вспоминают Олега Табакова, Иосифа Кобзона, Киру Муратову и других замечательных людей искусства. Несколько разных жанров выстраиваются в оригинальную конструкцию, чтобы создать ощущение яркого и доброго праздника.
Качество: WEB-DLRip-AVC
Видео: MPEG-4 AVC, ~ 1868 Кбит/с, 1024x576, 25 кадр/с
Аудио: AC3, 2 ch, 192 Кбит/с
Продолжительность: 00:50:22
Перевод: Не требуется
Субтитры: нет

Скриншоты


MediaInfo

General
Unique ID : 197864273416325338109496117281833028192 (0x94DB45DD68DBBE379CA8B64CE86B0A60)
Complete name : F:\Novyi.god.ya.lyublyu.tebya.(2019).WEB-DLRip.(AVC).by.Серый1779.Files-x.mkv
Format : Matroska
Format version : Version 2
File size : 740 MiB
Duration : 50 min 22 s
Overall bit rate : 2 053 kb/s
Encoded date : UTC 2019-01-12 02:02:42
Writing application : mkvmerge v7.8.0 ('River Man') 32bit built on Apr 3 2015 12:11:22
Writing library : libebml v1.3.1 + libmatroska v1.4.2
Video
ID : 1
Format : AVC
Format/Info : Advanced Video Codec
Format profile : High@L4.1
Format settings : CABAC / 9 Ref Frames
Format settings, CABAC : Yes
Format settings, RefFrames : 9 frames
Codec ID : V_MPEG4/ISO/AVC
Duration : 50 min 22 s
Bit rate : 1 868 kb/s
Width : 1 024 pixels
Height : 576 pixels
Display aspect ratio : 16:9
Frame rate mode : Constant
Frame rate : 25.000 FPS
Color space : YUV
Chroma subsampling : 4:2:0
Bit depth : 8 bits
Scan type : Progressive
Bits/(Pixel*Frame) : 0.127
Stream size : 656 MiB (89%)
Writing library : x264 core 146 r2538 121396c
Encoding settings : cabac=1 / ref=9 / deblock=1:-2:-1 / analyse=0x3:0x133 / me=umh / subme=9 / psy=1 / psy_rd=1.00:0.15 / mixed_ref=1 / me_range=32 / chroma_me=1 / trellis=2 / 8x8dct=1 / cqm=0 / deadzone=21,11 / fast_pskip=0 / chroma_qp_offset=-3 / threads=18 / lookahead_threads=3 / sliced_threads=0 / nr=0 / decimate=1 / interlaced=0 / bluray_compat=0 / constrained_intra=0 / bframes=9 / b_pyramid=2 / b_adapt=2 / b_bias=0 / direct=3 / weightb=1 / open_gop=0 / weightp=2 / keyint=250 / keyint_min=25 / scenecut=40 / intra_refresh=0 / rc=2pass / mbtree=0 / bitrate=1868 / ratetol=1.0 / qcomp=0.60 / qpmin=0 / qpmax=69 / qpstep=4 / cplxblur=20.0 / qblur=0.5 / ip_ratio=1.40 / pb_ratio=1.30 / aq=2:1.00
Default : Yes
Forced : No
Color range : Limited
Color primaries : BT.709
Transfer characteristics : BT.709
Matrix coefficients : BT.709
Audio
ID : 2
Format : AC-3
Format/Info : Audio Coding 3
Format settings, Endianness : Big
Codec ID : A_AC3
Duration : 50 min 22 s
Bit rate mode : Constant
Bit rate : 192 kb/s
Channel(s) : 2 channels
Channel positions : Front: L R
Sampling rate : 48.0 kHz
Frame rate : 31.250 FPS (1536 SPF)
Bit depth : 16 bits
Compression mode : Lossy
Stream size : 69.2 MiB (9%)
Service kind : Complete Main
Default : Yes
Forced : No
Релиз от:
[Profile] [PM]
Display posts:    
Reply to topic

Current time is: 17-Jul 10:41

All times are UTC + 3



You cannot post new topics in this forum
You cannot reply to topics in this forum
You cannot edit your posts in this forum
You cannot delete your posts in this forum
You cannot vote in polls in this forum
You cannot attach files in this forum
You cannot download files in this forum