Красный 5 [1-8 серии из 8] (2024) WEBRip от Files-х

Reply to topic
 
Author Message

bond74 ®

Gender: Male

Longevity: 5 years 5 months

Posts: 2364

Post 23-Feb-2024 15:32

[Quote]

Красный 5 Год выпуска: 2024
Жанр: Комедия, боевик
Выпущено: Россия, Кинокомпания "ТВ-3", "PREMIER", "1-2-3 Production"
Режиссер: Евгений Шелякин
В ролях: Денис Шведов, Гоша Куценко, Роман Курцын, Надежда Жарычева, Севастьян Бугаев, Мария Лисовая, Ян Цапник, Егор Дружинин, Полина Сыркина, Артур Мухамадияров, Сергей Кореньков, Маргарита Шабардыгина, Мария Ремер, Илья Крутояров, Евгения Глотова, Ксения Золотухина, Дмитрий Муляр, Виктор Конухин, Татьяна Храмова (II), Кирилл Фролов, Юлия Зимина, Александр Яцко, Леонид Тимцуник, Игорь Хрипунов, Леонид Бичевин, Настасья Самбурская, Виталия Корниенко
О фильме: Агент спецслужб Бекешев, который в одиночку может нейтрализовать любого противника, однажды, несмотря на весь свой опыт, проваливает задание и его отправляют в отставку. Жить на «гражданке» Бекешев не умеет: он страдает крайней подозрительностью, не доверяет соседям и превращает свою квартиру в самодельный штаб. Но внезапно его навыки оказываются вновь нужны: бывший начальник Бекешева Анатолич просит поймать сбежавших из полярной тюрьмы преступников с суперспособностями. В напарники Бекешеву приставляют хакера по кличке Бабуля – экстравагантного, но высококлассного специалиста. Теперь шпионскому трио предстоит спасать родину от настоящих суперзлодеев.

Качество: WEBRip
Видео: XviD, ~ 1600 Кбит/с, 720x304, 25 кадр/с
Аудио: AC3, 2 ch, 192 Кбит/с
Продолжительность: 2 x ~ 00:47:26
Перевод: Не требуется
Cубтитры: Нет

Скриншоты



MediaInfo

Общее
Полное имя : D:\Красный 5.2024.WEB-DLRip.Files-x\01 Красный 5.2024.WEB-DLRip.Files-x.avi
Формат : AVI
Формат/Информация : Audio Video Interleave
Настройки формата : BitmapInfoHeader / WaveFormatEx
Размер файла : 602 Мбайт
Продолжительность : 47 м. 26 с.
Общий поток : 1 775 Кбит/сек
Частота кадров : 25,000 кадров/сек
Программа кодирования : VirtualDubMod 1.5.10.3 | www.virtualdub-fr.org || (build 2550/release)
Библиотека кодирования : VirtualDubMod build 2550/release
Видео
Идентификатор : 0
Формат : MPEG-4 Visual
Профиль формата : Advanced Simple@L5
Настройки формата : BVOP1 / Custom Matrix
Параметр BVOP формата : 1
Параметр QPel формата : Нет
Параметр GMC формата : Без точки перехода
Параметр матрицы формата : Выборочная
Идентификатор кодека : XVID
Идентификатор кодека/Подсказка : XviD
Продолжительность : 47 м. 26 с.
Битрейт : 1 574 Кбит/сек
Ширина : 720 пикселей
Высота : 304 пикселя
Соотношение сторон : 2,35:1
Частота кадров : 25,000 кадров/сек
Цветовое пространство : YUV
Субдискретизация насыщенности : 4:2:0
Битовая глубина : 8 бит
Тип развёртки : Прогрессивная
Метод сжатия : С потерями
Бит/(Пиксели*Кадры) : 0.288
Размер потока : 534 Мбайт (89%)
Библиотека кодирования : XviD 73
Аудио
Идентификатор : 1
Формат : AC-3
Формат/Информация : Audio Coding 3
Коммерческое название : Dolby Digital
Идентификатор кодека : 2000
Продолжительность : 47 м. 26 с.
Вид битрейта : Постоянный
Битрейт : 192 Кбит/сек
Каналы : 2 канала
Channel layout : L R
Частота : 48,0 КГц
Частота кадров : 31,250 кадров/сек (1536 SPF)
Метод сжатия : С потерями
Размер потока : 65,1 Мбайт (11%)
Выравнивание : Разделение по промежуткам
Продолжительность промежутка : 40 мс. (1,00 видеокадр)
Время предзагрузки промежутка : 500 мс.
Service kind : Complete Main

Внимание! Раздача ведётся путём добавления новых серий

Раздача ведётся путём добавления новых серий, при каждом добавлении создаётся новый торрент. Чтобы начать докачку новой серии, пользователям необходимо сделать следующее:
- Остановить скачивание.
- Удалить старый торрент у себя из клиента (старые серии удалять не надо).
- Скачать новый торрент и запустить его у себя в клиенте вместо старого, при этом указать клиенту путь в старую папку куда и должно происходить скачивание новых серий.
Ваш клиент при этом должен произвести хеширование (проверку) старой папки (если не производит сам - помогите ему сделать это), и будет докачивать только те серии которых у вас ещё нет. Старые серии при этом не удаляются, а продолжают раздаваться!
Релиз от:

Release was prepared by RG Files-x

[Profile] [PM]
Display posts:    
Reply to topic

Current time is: 20-Apr 15:52

All times are UTC + 3



You cannot post new topics in this forum
You cannot reply to topics in this forum
You cannot edit your posts in this forum
You cannot delete your posts in this forum
You cannot vote in polls in this forum
You cannot attach files in this forum
You cannot download files in this forum