Аншлаг. Старый Новый год (2019) HDTV 1080i от Files-x

Reply to topic
 
Author Message

bond74 ®

Gender: Male

Longevity: 8 months 2 days

Posts: 550

Post 13-Jan-2019 02:48

[Quote]

Аншлаг. Старый Новый год Год выпуска: 2019
Жанр: Юмор, ТВ-шоу
Выпущено: Россия, ВГТРК
Ведущий: Юрий Кондратюк
В роля: Регина Дубовицкая
О фильме: "Аншлаговцы" уже много лет – привычная компания для телезрителей в Старый Новый год. Сегодня с лучшими номерами выступят постоянные участники и гости "Аншлага". Собравшись 13 января в своем клубе, чтобы встретить Старый Новый год вместе с любимыми зрителями, все артисты по традиции подготовили новые праздничные номера. В программу также вошли уникальные видеоматериалы из архива "Аншлага" разных лет.
Качество: HDTV 1080i
Видео: MPEG-4 AVC, 12.4 Мбит/с, 1920x1080, 25 кадр/с
Аудио: MP2, 2 ch, 192 Кбит/с
Продолжительность: 2:45:21
Перевод: Не требуется
Субтитры: нет

Скриншоты

MediaInfo

General
ID : 1 (0x1)
Complete name : H:\Аншлаг. Старый Новый год. 2019.01.12. HDTV 1080i-files-x.ts
Format : MPEG-TS
File size : 15.3 GiB
Duration : 2h 45mn
Overall bit rate : 13.2 Mbps
Video
ID : 256 (0x100)
Menu ID : 1 (0x1)
Format : AVC
Format/Info : Advanced Video Codec
Format profile : High@L4.0
Format settings, CABAC : Yes
Format settings, ReFrames : 4 frames
Codec ID : 27
Duration : 2h 45mn
Bit rate : 12.4 Mbps
Width : 1 920 pixels
Height : 1 080 pixels
Display aspect ratio : 16:9
Frame rate : 25.000 fps
Standard : Component
Color space : YUV
Chroma subsampling : 4:2:0
Bit depth : 8 bits
Scan type : Interlaced
Scan order : Top Field First
Bits/(Pixel*Frame) : 0.238
Stream size : 14.3 GiB (94%)
Color primaries : BT.709-5, BT.1361, IEC 61966-2-4, SMPTE RP177
Transfer characteristics : BT.709-5, BT.1361
Matrix coefficients : BT.709-5, BT.1361, IEC 61966-2-4 709, SMPTE RP177
Audio
ID : 257 (0x101)
Menu ID : 1 (0x1)
Format : MPEG Audio
Format version : Version 1
Format profile : Layer 2
Codec ID : 3
Duration : 2h 45mn
Bit rate mode : Constant
Bit rate : 192 Kbps
Channel(s) : 2 channels
Sampling rate : 48.0 KHz
Compression mode : Lossy
Delay relative to video : -80ms
Stream size : 227 MiB (1%)
Language : Russian
Релиз от:
[Profile] [PM]
Display posts:    
Reply to topic

Current time is: 17-Jul 10:37

All times are UTC + 3



You cannot post new topics in this forum
You cannot reply to topics in this forum
You cannot edit your posts in this forum
You cannot delete your posts in this forum
You cannot vote in polls in this forum
You cannot attach files in this forum
You cannot download files in this forum