Крепкие орешки [2 сезон: 1-32 серии из 32] (2022) WEB-DLRip-AVC от Files-x

Reply to topic
 
Author Message

Серый1779 ®

Gender: Male

Longevity: 5 years 5 months

Posts: 3511

Location: Украина

Post 26-Feb-2024 13:49

[Quote]

Крепкие орешки Год выпуска: 2022
Жанр: Детектив, криминал
Выпущено: Россия, Кинокомпания "Триикс Медиа" по заказу Пятого канала
Режиссер: Дмитрий Аверин (II), Андрей Коршунов, Михаил Вассербаум, Сергей Полуянов (II), Максим Бриус
В ролях: Филипп Азаров, Борис Бедросов, Вячеслав Аркунов, Андрей Бабенко, Екатерина Зорина, Даниил Щипицын, Олег Абалян, Анатолий Дубанов, Олег Метелев, Алла Одинг, Иван Федорук, Наталья Свешникова, Лиза Медведева, Евгений Пилипенко, Денис Портнов, Александра Морозова (II), Лайма Зайцева, Виталий Кривонос, Алексей Парасевич, Александр Иванов (VIII), Светлана Перфильева, Тадас Шимилёв, Вячеслав Гумеров, Виталий Горев, Евгений Тележкин, Александр Карпухов, Павел Платонов (младший), Екатерина Зеленцова, Наталья Бурмистрова, Вера Тран, Александр Бахаревский, Антон Чернов, Елизавета Ковалёва, Дмитрий Олейник, Александр Мосолов, Евгений Катаев, Кристина Иёшкина, Маргарита Бычкова, Иван Сямянен, Игорь Ключников, Валентин Бугаев, Ольга Любимова (II), Иван Солнцев, Сергей Демидов, Елена Агеева (II), Денис Козинец, Андрей Москвичёв, Николай Иванов (VII), Ксения Асмоловская, Дмитрий Бауман, Григорий Каценельсон, Аркадий Гриф, Наталья Индейкина, Виктор Бабич, Александр Майоров, Ирина Ракшина, Арсений Кожемякин, Владимир Брест, Ольга Кожевникова, Сергей Евсеев, Кирилл Капица, Анатолий Краснопивцев, Владимир Ляхов (II), Варвара Резвова, Николай Поздняков, Александр Тарханов, Вадим Франчук, Игорь Милетский, Дмитрий Барков (II), Иван Васильев
О фильме: Во втором сезоне главным героям Юрию Романову и Леониду Лаврову предстоит расследовать и распутывать еще более сложные дела. Зачастую ситуация будет выходить из-под контроля, а жизни оперативников - висеть на волоске от смерти. Известный наркоторговец, которого задержал Лавров, решит отомстить своему «обидчику» и наймет киллера. Остаться в живых полицейскому поможет только чудо. Удастся ли ему избежать отравления клофелином и вместе с напарником вовремя обезвредить взрывные устройства?

Качество: WEB-DLRip-AVC
Видео: MPEG-4 AVC, ~ 1600 Кбит/с, 1024x576, 25 кадр/с
Аудио: AC3, 2 ch, 192 Кбит/с
Продолжительность: 32 х ~ 00:39:31
Перевод: Не требуется
Субтитры: Нет

Скриншоты



MediaInfo

General
Unique ID : 205114149761586111401347598857241350581 (0x9A4F8C5DAC4A414AAA292421D737D1B5)
Complete name : F:\Крепкие орешки.S02.(2022).WEB-DLRip.(AVC).Files-x\01.Крепкие орешки.S02.(2022).WEB-DLRip.(AVC).by.Серый1779.Files-x.mkv
Format : Matroska
Format version : Version 2
File size : 507 MiB
Duration : 39 min 31 s
Overall bit rate : 1 793 kb/s
Encoded date : UTC 2024-02-26 10:35:07
Writing application : mkvmerge v7.8.0 ('River Man') 32bit built on Apr 3 2015 12:11:22
Writing library : libebml v1.3.1 + libmatroska v1.4.2
Video
ID : 1
Format : AVC
Format/Info : Advanced Video Codec
Format profile : High@L4.1
Format settings : CABAC / 9 Ref Frames
Format settings, CABAC : Yes
Format settings, RefFrames : 9 frames
Codec ID : V_MPEG4/ISO/AVC
Duration : 39 min 31 s
Bit rate : 1 600 kb/s
Width : 1 024 pixels
Height : 576 pixels
Display aspect ratio : 16:9
Frame rate mode : Constant
Frame rate : 25.000 FPS
Color space : YUV
Chroma subsampling : 4:2:0
Bit depth : 8 bits
Scan type : Progressive
Bits/(Pixel*Frame) : 0.109
Stream size : 443 MiB (87%)
Writing library : x264 core 146 r2538 121396c
Encoding settings : cabac=1 / ref=9 / deblock=1:-2:-1 / analyse=0x3:0x133 / me=umh / subme=9 / psy=1 / psy_rd=1.00:0.15 / mixed_ref=1 / me_range=32 / chroma_me=1 / trellis=2 / 8x8dct=1 / cqm=0 / deadzone=21,11 / fast_pskip=0 / chroma_qp_offset=-3 / threads=18 / lookahead_threads=3 / sliced_threads=0 / nr=0 / decimate=1 / interlaced=0 / bluray_compat=0 / constrained_intra=0 / bframes=9 / b_pyramid=2 / b_adapt=2 / b_bias=0 / direct=1 / weightb=1 / open_gop=0 / weightp=2 / keyint=250 / keyint_min=25 / scenecut=40 / intra_refresh=0 / rc=2pass / mbtree=0 / bitrate=1600 / ratetol=1.0 / qcomp=0.60 / qpmin=0 / qpmax=69 / qpstep=4 / cplxblur=20.0 / qblur=0.5 / ip_ratio=1.40 / pb_ratio=1.30 / aq=2:1.00
Default : Yes
Forced : No
Color range : Limited
Color primaries : BT.709
Transfer characteristics : BT.709
Matrix coefficients : BT.709
Audio
ID : 2
Format : AC-3
Format/Info : Audio Coding 3
Format settings, Endianness : Big
Codec ID : A_AC3
Duration : 39 min 31 s
Bit rate mode : Constant
Bit rate : 192 kb/s
Channel(s) : 2 channels
Channel positions : Front: L R
Sampling rate : 48.0 kHz
Frame rate : 31.250 FPS (1536 SPF)
Bit depth : 16 bits
Compression mode : Lossy
Stream size : 54.3 MiB (11%)
Service kind : Complete Main
Default : Yes
Forced : No

Раздача ведётся путём добавления новых серий

Внимание! Раздача ведётся путём добавления новых серий; при каждом добавлении создаётся новый торрент.
Чтобы начать докачку новой серии, пользователям необходимо сделать следующее:
1. Остановить скачивание;
2. Удалить старый торрент у себя из клиента (старые серии удалять не надо);
3. Скачать новый торрент и запустить его у себя в клиенте вместо старого, при этом указать клиенту путь в старую папку куда и должно происходить скачивание новых серий. Ваш клиент при этом должен произвести хеширование (проверку) старой папки и будет докачивать только те серии, которых у вас ещё нет. Старые серии при этом не удаляются, а продолжают раздаваться! Eсли вы уже удалили старые серии, то предотвратить повторную закачку старых серий можно, отжав галочку в соответствующих местах при запуске нового торрента.
Релиз от:
[Profile] [PM]
Display posts:    
Reply to topic

Current time is: 20-Apr 17:20

All times are UTC + 3



You cannot post new topics in this forum
You cannot reply to topics in this forum
You cannot edit your posts in this forum
You cannot delete your posts in this forum
You cannot vote in polls in this forum
You cannot attach files in this forum
You cannot download files in this forum