На районе (2018) WEB-DLRip от R.G.GeneralFilm | iTunes

Ответить на тему
 
Автор Сообщение

vsobbol ®

Пол: Мужской

Стаж: 3 месяца

Сообщений: 107

Откуда: Донецк

Создавать темы 16-Ноя-2018 00:47

[Цитировать]

На районе
Год выпуска: 2018
Жанр: Драма
Выпущено: Россия, DK Entertainment, Марс Медиа Энтертейнмент
Режиссер: Ольга Зуева
В ролях:Данила Козловский, Илья Маланин, Елена Оболенская, Ангелина Стречина, Ольга Зуева, Андрей Амшинский, Эдгар Гизатуллин, Александр Мизев, Владимир Хацкевич, Владимир Афанасьев
О фильме: Вова и его лучший друг Киса зарабатывают деньги, занимаясь нелегальной деятельностью. Их жизнь проходит на волне веселья, в погоне за острыми ощущениями и кратковременными удовольствиями, пока очередной заказ не приводит их дружбу к главному испытанию, заставив каждого ответить на вопрос: кто ты?

Качество: WEB-DLRip
Видео: XviD build 73, 688x288 (2.40:1), 25.000 fps, 1002 Kbps (0.202 bit/pixel)
Аудио: 48.0 kHz, MP3, 2/0 ch, 128 kbps
Продолжительность: 01:31:26
Перевод: Не требуется | iTunes
Cубтитры: нет

Скриншоты

MediaInfo

General
Complete name : D:RazdachiNa.Rajone.2018.XviD.WEB-DLRip.GeneralFilm.avi
Format : AVI
Format/Info : Audio Video Interleave
File size : 745 MiB
Duration : 1 h 31 min
Overall bit rate : 1 139 kb/s
Writing application : VirtualDubMod 1.5.10.3 | www.virtualdub-fr.org || (build 2550/release)
Writing library : VirtualDubMod build 2550/release
Video
ID : 0
Format : MPEG-4 Visual
Format profile : Advanced Simple@L5
Format settings, BVOP : 1
Format settings, QPel : No
Format settings, GMC : No warppoints
Format settings, Matrix : Custom
Codec ID : XVID
Codec ID/Hint : XviD
Duration : 1 h 31 min
Bit rate : 1 002 kb/s
Width : 688 pixels
Height : 288 pixels
Display aspect ratio : 2.40:1
Frame rate : 25.000 FPS
Color space : YUV
Chroma subsampling : 4:2:0
Bit depth : 8 bits
Scan type : Progressive
Compression mode : Lossy
Bits/(Pixel*Frame) : 0.202
Stream size : 655 MiB (88%)
Writing library : XviD 73
Audio
ID : 1
Format : MPEG Audio
Format version : Version 1
Format profile : Layer 3
Codec ID : 55
Codec ID/Hint : MP3
Duration : 1 h 31 min
Bit rate mode : Constant
Bit rate : 128 kb/s
Channel(s) : 2 channels
Sampling rate : 48.0 kHz
Compression mode : Lossy
Stream size : 83.7 MiB (11%)
Alignment : Aligned on interleaves
Interleave, duration : 40 ms (1.00 video frame)
Interleave, preload duratio : 504 ms
Writing library : LAME3.99r
Encoding settings : -m s -V 4 -q 2 -lowpass 17 -b 128
Релиз от:
[Профиль] [ЛС]
Показать сообщения:    
Ответить на тему

Текущее время: 16-Фев 11:24

Часовой пояс: UTC + 3



Вы не можете начинать темы
Вы не можете отвечать на сообщения
Вы не можете редактировать свои сообщения
Вы не можете удалять свои сообщения
Вы не можете голосовать в опросах
Вы не можете прикреплять файлы к сообщениям
Вы не можете скачивать файлы