Маша и Медведь [1-78 серии] + Машины сказки [1-26 серии] + Машкины страшилки [1-26 серии] + Клип (2009-2019) HDRip, WEB-DLRip от GeneralFilm

Reply to topic
 
Author Message

vsobbol ®

Gender: Male

Longevity: 7 months 2 days

Posts: 205

Location: Донецк

Post 19-Jan-2019 02:43

[Quote]

Маша и Медведь
Год выпуска: 2009-2019
Жанр: Мультсериал, сказка, детский, семейный
Выпущено: Россия, Студия "Анимаккорд"
Режиссер: Олег Ужинов, Денис Червяцов, Марина Нефедова, Олег Кузовков
В ролях: Алина Кукушкина, Эдуард Назаров, Борис Кутневич
О фильме: Мультсериал про девочку Машу, которая никому не дает покоя, и в первую очередь — своему другу Медведю. Сериал рассчитан в первую очередь на детскую аудиторию от 3 до 9 лет. Тем не менее мультфильм семейный, интересный для всех возрастов, взрослые тоже могут посмеяться над приключениями Маши и Медведя.

Качество: HDRip, WEB-DLRip
Видео: XviD build 73, 720x400 (16:9), 25.000 fps, ~ 1450 Kbps (~ 0.200 bit/pixel)
Аудио: 48.0 kHz, AC3, 2/0 ch, 192 kbps
Продолжительность: 78 x ~ 00:06:50; 26 x ~ 00:05:50; 26 x ~ 00:05:40; 1 х 00:01:53
Перевод: Не требуется
Субтитры: нет

MediaInfo

General
Complete name : D:\Razdachi\Masha.i.Medved.Mashiny.Skazki.Mashkiny.Strashilki.Klip.XviD.HDRip.by.GeneralFilm\Masha.i.Medvedj\76.Vsia.Zhiznj.Teatr.avi
Format : AVI
Format/Info : Audio Video Interleave
File size : 99.8 MiB
Duration : 8 min 25 s
Overall bit rate : 1 656 kb/s
Writing application : VirtualDubMod 1.5.10.3 | www.virtualdub-fr.org || (build 2550/release)
Writing library : VirtualDubMod build 2550/release
Video
ID : 0
Format : MPEG-4 Visual
Format profile : Advanced Simple@L5
Format settings : BVOP1 / Custom Matrix
Format settings, BVOP : 1
Format settings, QPel : No
Format settings, GMC : No warppoints
Format settings, Matrix : Custom
Codec ID : XVID
Codec ID/Hint : XviD
Duration : 8 min 25 s
Bit rate : 1 454 kb/s
Width : 720 pixels
Height : 400 pixels
Display aspect ratio : 16:9
Frame rate : 25.000 FPS
Color space : YUV
Chroma subsampling : 4:2:0
Bit depth : 8 bits
Scan type : Progressive
Compression mode : Lossy
Bits/(Pixel*Frame) : 0.202
Stream size : 87.6 MiB (88%)
Writing library : XviD 73
Audio
ID : 1
Format : AC-3
Format/Info : Audio Coding 3
Commercial name : Dolby Digital
Codec ID : 2000
Duration : 8 min 25 s
Bit rate mode : Constant
Bit rate : 192 kb/s
Channel(s) : 2 channels
Channel layout : L R
Sampling rate : 48.0 kHz
Frame rate : 31.250 FPS (1536 SPF)
Bit depth : 16 bits
Compression mode : Lossy
Stream size : 11.6 MiB (12%)
Alignment : Split accross interleaves
Interleave, duration : 40 ms (1.00 video frame)
Interleave, preload duratio : 500 ms
Service kind : Complete Main

Список серий

01. Первая встреча
02. Раз, два, три! Ёлочка, гори!
03. До весны не будить
04. Ловись рыбка
05. Весна пришла
06. Следы невиданных зверей
07. С волками жить
08. Позвони мне, позвони
09. День варенья
10. Праздник на льду
11. Первый раз в первый класс
12. Граница на замке
13. Кто не спрятался, я не виноват
14. Лыжню
15. Будьте здорОвы!
16. Маша + каша
17. Дальний родственник
18. Большая стирка
19. Репетиция оркестра
20. Усатый-полосатый
21. Один дома
22. Дышите! Не дышите!
23. Подкидыш!
24. Приятного аппетита!
25. Фокус-покус
26. Осторожно, ремонт!
27. Картина маслом.
28. Ход конём.
29. Хит сезона
30. Витамин роста
31. Когда все дома
32. Новая метла
33. Сладкая жизнь
34. Фотография 9х12
35. Трудно быть маленьким
36. Двое на одного
37. Большое путешествие
38. Нынче всё наоборот
39. Сказка на ночь
40. Красота - страшная сила !
41. Дело в шляпе
42. День кино
43. Героями не рождаются
44. Раз в году
45. Запутанная история
46. Учитель танцев
47. Крик победы
48. Пещерный медведь
49. Дорогая передача
50. Праздник урожая
51. Неуловимые мстители
52. До новых встреч !
53. На круги своя
54. В гостях у сказки
55. Эх, прокачу!
56. Страшно, аж жуть!
57. На привале
58. Кошки-Мышки
59. Game Over
60. К вашим услугам!
61. C любимыми не расставайтесь
62. Спи, моя радость, усни!
63. Сюрприз! Сюрприз!
64. Три машкетера
65. Есть контакт !
66. Спокойствие, только спокойствие!
67. Цирк, да и только !
68. Квартет плюс
69. Сколько волка ни корми
70. Звезда с неба
71. Вот такой хоккей
72. Шарики и кубики
73. Случай на рыбалке
74. Вот как бывает
75. Не царское дело
76. Вся жизнь - театр!
77. Вокруг света за один час
78. Кем Быть?
Машины сказки:
01. Волк и семеро козлят
02. Гуси-лебеди
03. Красная шапочка
04. Лиса и заяц
05. Морозко
06. Волк и лиса
07. Вершки и корешки
08. Царевна-лягушка
09. Снегурочка
10. Мальчик с пальчик
11. Крошечка-хаврошечка
12. Бычок смоляной бочок
13. Три поросенка
14. Храбрый портняжка
15. Али-Баба
16. Золушка
17. Калиф-Аист
18. Джек и бобовое зернышко
19. Свинопас
20. Синяя борода
21. По щучьему велению
22. Лисичка со скалочкой
23. Каша из топора
24. Пойди туда - не знаю куда, принеси то - не знаю что
25. Петушок - Золотой гребешок
26. Конек-Горбунок
Машкины страшилки:
01. Душераздирающая повесть о темном лесе и маленьком жучке
02. Жутко-страшное придание о том, как один мальчик боялся умываться
03. Про чудовищ
04. Тревожный сказ о потерявшемся котёнке
05. Кошмарное поверие о новогодних стишках
06. Мрачная притча о суеверной девочке
07. Угрюмый завет о сопливом мальчике
08. О Девочке, которая боялась зверушек
09. Ужасающая история про бабушку и внучка
10. Полный отчаяния миф об исторической ошибке
11. Панически невыносимая легенда о букашках
12. Тревожный сказ про Бабку-Ёжку
13. Зловещая Сага о больном животике и о Девочке, которая боялась докторов
14. Фантастический рассказ о ёжике, мальчике и зелёных гуманоидах
15. Ужасная быль о том, как мальчика перевели в другую школу
16. Жуткая байка про пастушка на пеньке
17. Приводящая в трепет сага о велосипеде - призраке
18. Страшная страшилка о страшилках
19. Жутчайшая повесть о полезных изобретениях
20. Мрачная новелла о мрачных сновидениях
21. Грозная песнь о громе и молнии
22. Чудовищная правда о том, как страшно быть маленьким
23. Леденящая кровь эпопея о радостном событии
24. Чудовищные россказни о высоком и низком
25. Пугающее происшествие в цирке
26. Шокирующая история про девочку, которая всего боялась
Клип:
01. Песенка друзей
Релиз от:


Last edited by vsobbol on 2019-04-27 01:01; edited 1 time in total
[Profile] [PM]

yakut

Gender: Male

Longevity: 6 months 26 days

Posts: 7

Location: СССР

Post 13-Mar-2019 14:06 (after 1 month 25 days)

[Quote]

vsobbol aa
СПАСИБО!!!! ay az
[Profile] [PM]
Display posts:    
Reply to topic

Current time is: 18-Jun 20:57

All times are UTC + 3



You cannot post new topics in this forum
You cannot reply to topics in this forum
You cannot edit your posts in this forum
You cannot delete your posts in this forum
You cannot vote in polls in this forum
You cannot attach files in this forum
You cannot download files in this forum