Ивановы-Ивановы [3 сезон: 1-21 серия из 21] (2018) WEB-DLRip-AVC от Files-x

Reply to topic
 
Author Message

Серый1779 ®

Gender: Male

Longevity: 7 months 6 days

Posts: 472

Location: Украина

Post 16-Nov-2018 01:52

[Quote]

Ивановы-Ивановы
Год выхода: 2018
Жанр: Комедия
Выпущено: Россия, Yellow, Black and White
Режиссер: Антон Федотов
В ролях: Сергей Бурунов, Александра Флоринская, Михаил Трухин, Анна Уколова, Семён Трескунов, Алексей Лукин, Юрий Ицков, Елена Муравьёва, Грант Тохатян, Виктория Маслова, Василина Юсковец, Игорь Хрипунов, Александр Обласов, Валерий Панков, Артём Федотов, Кристина Каширина, Мария Иващенко, Валерий Новиков, Игорь Климов, Гарик Айвазов, Николай Козак, Натали Старынкевич, Юлия Чиплиева, Александр Марушев, Андрей Шишков (II), Денис Синявский, Александр Половцев, Сергей Беляев, Юлия Подозёрова, Слава Степанян, Андрей Арзяев
О фильме: Герои — две российские семьи Ивановых. Они не знакомы друг с другом, у них разный достаток и круг интересов. Одни — бедны и провинциальны, вторые — более чем обеспеченны и высокомерны. Они были бы счастливы прожить жизнь, ничего не зная друг о друге, но в один прекрасный день выясняется, что много лет назад наследников этих семей перепутали в роддоме, и все эти годы сын бедняков обитал в шикарном особняке, а отпрыск богатых Ивановых ютился в малогабаритной квартире. Конечно, теперь все хотят получить обратно своих кровных наследников.
Качество: WEB-DLRip-AVC
Видео: AVC, 1024x576, (16:9), ~1.600 kbps, 25 fps, 0,109 bpp
Аудио: AC3 / 2.0 / 44.1 kHz / 192 kbps /
Продолжительность: 21 x ~ 00:25:00
Перевод: Не требуется
Субтитры: нет

Скриншоты


MediaInfo

Общее
Уникальный идентификатор : 239998635076033248649129747981024251077 (0xB48E0E484943BC7CBCD783EC57CA4CC5)
Полное имя : F:\Ivanovy.Ivanovy.s03.(2018).HDTVRip.(AVC).Files-x\01.Ivanovy.Ivanovy.s03.(2018).WEB-DLRip.(AVC).by.Серый1779.Files-x.mkv
Формат : Matroska
Версия формата : Version 2
Размер файла : 318 Мбайт
Продолжительность : 24 м. 48 с.
Общий поток : 1793 Кбит/сек
Дата кодирования : UTC 2018-10-30 08:38:09
Программа кодирования : mkvmerge v7.8.0 ('River Man') 32bit built on Apr 3 2015 12:11:22
Библиотека кодирования : libebml v1.3.1 + libmatroska v1.4.2
Видео
Идентификатор : 1
Формат : AVC
Формат/Информация : Advanced Video Codec
Профиль формата : High@L4.1
Настройки формата : CABAC / 9 Ref Frames
Параметр CABAC формата : Да
Параметр RefFrames формата : 9 кадров
Идентификатор кодека : V_MPEG4/ISO/AVC
Продолжительность : 24 м. 48 с.
Битрейт : 1600 Кбит/сек
Ширина : 1024 пикселя
Высота : 576 пикселей
Соотношение сторон : 16:9
Режим частоты кадров : Постоянный
Частота кадров : 25,000 кадров/сек
Цветовое пространство : YUV
Субдискретизация насыщенности : 4:2:0
Битовая глубина : 8 бит
Тип развёртки : Прогрессивная
Бит/(Пиксели*Кадры) : 0.109
Размер потока : 278 Мбайт (87%)
Библиотека кодирования : x264 core 146 r2538 121396c
Настройки программы : cabac=1 / ref=9 / deblock=1:-2:-1 / analyse=0x3:0x133 / me=umh / subme=9 / psy=1 / psy_rd=1.00:0.15 / mixed_ref=1 / me_range=32 / chroma_me=1 / trellis=2 / 8x8dct=1 / cqm=0 / deadzone=21,11 / fast_pskip=0 / chroma_qp_offset=-3 / threads=18 / lookahead_threads=3 / sliced_threads=0 / nr=0 / decimate=1 / interlaced=0 / bluray_compat=0 / constrained_intra=0 / bframes=9 / b_pyramid=2 / b_adapt=2 / b_bias=0 / direct=1 / weightb=1 / open_gop=0 / weightp=2 / keyint=250 / keyint_min=25 / scenecut=40 / intra_refresh=0 / rc=2pass / mbtree=0 / bitrate=1600 / ratetol=1.0 / qcomp=0.60 / qpmin=0 / qpmax=69 / qpstep=4 / cplxblur=20.0 / qblur=0.5 / ip_ratio=1.40 / pb_ratio=1.30 / aq=2:1.00
Default : Да
Forced : Нет
Цветовой диапазон : Limited
Основные цвета : BT.709
Характеристики трансфера : BT.709
Коэффициенты матрицы : BT.709
Аудио
Идентификатор : 2
Формат : AC-3
Формат/Информация : Audio Coding 3
Параметр Endianness формата : Big
Идентификатор кодека : A_AC3
Продолжительность : 24 м. 48 с.
Вид битрейта : Постоянный
Битрейт : 192 Кбит/сек
Каналы : 2 канала
Расположение каналов : Front: L R
Частота : 44,1 КГц
Частота кадров : 28,711 кадров/сек (1536 SPF)
Битовая глубина : 16 бит
Метод сжатия : С потерями
Размер потока : 34,1 Мбайт (11%)
ServiceKind/String : Complete Main
Default : Да
Forced : Нет
Релиз от:


Last edited by Серый1779 on 2018-11-22 17:35; edited 6 times in total
[Profile] [PM]
Display posts:    
Reply to topic

Current time is: 18-Jun 20:58

All times are UTC + 3



You cannot post new topics in this forum
You cannot reply to topics in this forum
You cannot edit your posts in this forum
You cannot delete your posts in this forum
You cannot vote in polls in this forum
You cannot attach files in this forum
You cannot download files in this forum