Юные титаны, вперед! / Teen Titans Go! To the Movies (2018) BDRip AVC

Reply to topic
 
Author Message

Monk ®

Gender: Male

Longevity: 7 months 1 day

Posts: 6883

Location: Казань

Post 20-Nov-2018 18:19

[Quote]

Юные титаны, вперед! / Teen Titans Go! To the Movies Год выпуска: 2018
Жанр: Мультфильм, фантастика, боевик, комедия, семейный, полнометражный
Выпущено: США, Warner Bros. Animation, DC Entertainment
Режиссер: Аарон Хорват, Питер Райда Михаил
В ролях: Грег Сайпс, Скотт Менвиль, Хари Пэйтон, Тара Стронг, Хинден Уолш, Уилл Арнетт, Кристен Белл, Эрик Бауза, Майкл Болтон, Kal-El Cage
О фильме: Робин, напарник Бэтмена и лидер команды Юных титанов, решает исправить вопиющую несправедливость. Если даже Аквамен получил собственный фильм, то чем они хуже?! Друзья отправляются в Голливуд, полные желания стать героями лучшей в мире супергеройской картины. Но на пути им попадается суперзлодей Слэйд, мечтающий поработить Землю, так что Робину, Киборгу и остальным придётся пересмотреть свои планы.

Качество: BDRip AVC
Видео: MPEG-4 AVC, 2134 Кбит/с, 1024x576
Аудио: Русский (AC3, 2 ch, 192 Кбит/с), английский (AC3, 6 ch, 448 Кбит/с)
Продолжительность: 01:24:04
Перевод: Профессиональный многоголосый [HDrezka Studio]
Субтитры: Английские

Скриншоты



MediaInfo

Общее
Уникальный идентификатор : 78989921217756963544703013497116621216 (0x3B6CE7CC15339A53D21385C78C50F9A0)
Полное имя : F:\OlLanDGroup\Teen.Titans.Go.To.the.Movies.2018.BDRip(AVC).OlLanDGroup.mkv
Формат : Matroska
Версия формата : Version 4 / Version 2
Размер файла : 1,63 Гбайт
Продолжительность : 1 ч. 24 м.
Общий поток : 2776 Кбит/сек
Название фильма : Teen.Titans.Go.To.the.Movies.2018 #TorpedoUK#
Дата кодирования : UTC 2018-10-30 16:15:26
Программа кодирования : mkvmerge v25.0.0 ('Prog Noir') 64-bit
Библиотека кодирования : libebml v1.3.6 + libmatroska v1.4.9
Обложка : Yes
Attachments : small_cover.jpg / small_cover_land.jpg / cover.jpg / cover_land.jpg
Видео
Идентификатор : 1
Формат : AVC
Формат/Информация : Advanced Video Codec
Профиль формата : High@L4.1
Параметр CABAC формата : Да
Параметр ReFrames формата : 10 кадров
Идентификатор кодека : V_MPEG4/ISO/AVC
Продолжительность : 1 ч. 24 м.
Битрейт : 2134 Кбит/сек
Ширина : 1024 пикселя
Высота : 576 пикселей
Соотношение сторон : 16:9
Режим частоты кадров : Постоянный
Частота кадров : 23,976 (24000/1001) кадра/сек
Цветовое пространство : YUV
Субдискретизация насыщенности : 4:2:0
Битовая глубина : 8 бит
Тип развёртки : Прогрессивная
Бит/(Пиксели*Кадры) : 0.151
Размер потока : 1,25 Гбайт (77%)
Библиотека кодирования : x264 core 146 r2538 121396c
Настройки программы : cabac=1 / ref=10 / deblock=1:-3:-3 / analyse=0x3:0x113 / me=umh / subme=11 / psy=1 / psy_rd=1.00:0.03 / mixed_ref=1 / me_range=48 / chroma_me=1 / trellis=2 / 8x8dct=1 / cqm=0 / deadzone=21,11 / fast_pskip=1 / chroma_qp_offset=-3 / threads=6 / lookahead_threads=1 / sliced_threads=0 / nr=0 / decimate=1 / interlaced=0 / bluray_compat=0 / constrained_intra=0 / bframes=10 / b_pyramid=2 / b_adapt=2 / b_bias=0 / direct=3 / weightb=1 / open_gop=0 / weightp=2 / keyint=240 / keyint_min=23 / scenecut=40 / intra_refresh=0 / rc_lookahead=40 / rc=2pass / mbtree=0 / bitrate=2134 / ratetol=1.0 / qcomp=0.60 / qpmin=0 / qpmax=69 / qpstep=4 / cplxblur=20.0 / qblur=0.5 / vbv_maxrate=50000 / vbv_bufsize=62500 / nal_hrd=none / filler=0 / ip_ratio=1.40 / pb_ratio=1.30 / aq=1:1.00
Язык : English
Default : Да
Forced : Нет
Аудио #1
Идентификатор : 2
Формат : AC-3
Формат/Информация : Audio Coding 3
Расширение режима : CM (complete main)
Параметр Endianness формата : Big
Идентификатор кодека : A_AC3
Продолжительность : 1 ч. 24 м.
Вид битрейта : Постоянный
Битрейт : 192 Кбит/сек
Каналы : 2 канала
Расположение каналов : Front: L R
Частота : 48,0 КГц
Частота кадров : 31,250 кадров/сек (1536 spf)
Битовая глубина : 16 бит
Метод сжатия : С потерями
Размер потока : 115 Мбайт (7%)
Заголовок : MVO [HDRezka Studio]
Язык : Russian
Default : Да
Forced : Нет
Аудио #2
Идентификатор : 3
Формат : AC-3
Формат/Информация : Audio Coding 3
Расширение режима : CM (complete main)
Параметр Endianness формата : Big
Идентификатор кодека : A_AC3
Продолжительность : 1 ч. 24 м.
Вид битрейта : Постоянный
Битрейт : 448 Кбит/сек
Каналы : 6 каналов
Расположение каналов : Front: L C R, Side: L R, LFE
Частота : 48,0 КГц
Частота кадров : 31,250 кадров/сек (1536 spf)
Битовая глубина : 16 бит
Метод сжатия : С потерями
Размер потока : 269 Мбайт (16%)
Заголовок : [Original]
Язык : English
Default : Нет
Forced : Нет
Текст #1
Идентификатор : 4
Формат : UTF-8
Идентификатор кодека : S_TEXT/UTF8
Идентификатор кодека/Информация : UTF-8 Plain Text
Продолжительность : 1 ч. 22 м.
Битрейт : 66 бит/сек
Count of elements : 1234
Размер потока : 40,3 Кбайт (0%)
Заголовок : Full
Язык : English
Default : Нет
Forced : Нет
Текст #2
Идентификатор : 5
Формат : UTF-8
Идентификатор кодека : S_TEXT/UTF8
Идентификатор кодека/Информация : UTF-8 Plain Text
Продолжительность : 1 ч. 22 м.
Битрейт : 73 бит/сек
Count of elements : 1422
Размер потока : 44,9 Кбайт (0%)
Заголовок : SDH
Язык : English
Default : Нет
Forced : Нет
Меню
00:00:00.000 : en:Chapter 01
00:10:26.125 : en:Chapter 02
00:20:20.594 : en:Chapter 03
00:32:50.093 : en:Chapter 04
00:42:39.473 : en:Chapter 05
00:51:32.339 : en:Chapter 06
01:02:41.841 : en:Chapter 07
01:08:43.994 : en:Chapter 08
01:17:25.474 : en:Chapter 09
[Profile] [PM]
Display posts:    
Reply to topic

Current time is: 16-Jun 11:05

All times are UTC + 3



You cannot post new topics in this forum
You cannot reply to topics in this forum
You cannot edit your posts in this forum
You cannot delete your posts in this forum
You cannot vote in polls in this forum
You cannot attach files in this forum
You cannot download files in this forum