Пациент Зеро (Нулевой пациент) / Patient Zero (2018) BDRip AVC

Reply to topic
 
Author Message

Monk ®

Gender: Male

Longevity: 1 year

Posts: 9115

Location: Казань

Post 21-Nov-2018 10:28

[Quote]

Пациент Зеро (Нулевой пациент) / Patient Zero Год выпуска: 2018
Жанр: Ужасы, боевик, драма
Выпущено: Великобритания, Screen Gems, Vincent Newman Entertainment
Режиссер: Штефан Руцовицки
В ролях: Натали Дормер, Мэтт Смит, Стэнли Туччи, Клайв Стэнден, Фредерик Шмидт, Агнесс Дейн, Джон Брэдли, Пиппа Беннетт-Уорнер, Колин МакФарлэйн, Дильяна Буклиева
О фильме: По Земле прокатился вирус, в результате которого большая часть населения превратилась в кровожадных и жестоких безумцев или, иными словами, в «инфицированных». Цивилизация погружается в хаос, человечество стоит на грани вымирания. Правда, некоторые люди имеют особый дар - понимать речь инфицированных и разговаривать с ними. Одним из немногих, кто наделен такой способностью, оказывается доктор Морган. Его жена тоже заражена. Морган решает найти так называемого пациента Зеро, с помощью которого можно создать антивирус и спасти человечество.

Качество: BDRip AVC
Видео: MPEG-4 AVC, 2011 Кбит/с, 1024x428
Аудио: Русский (AC3, 2 ch, 192 Кбит/с), английский (AC3, 6 ch, 448 Кбит/с)
Продолжительность: 01:26:46
Перевод: Профессиональный многоголосый [HDrezka Studio]
Субтитры: Английские

Скриншоты



MediaInfo

Общее
Уникальный идентификатор : 244105320189115987102553705811297906993 (0xB7A4F97DA88DEA64A82900D710333131)
Полное имя : F:\OlLanDGroup\Patient.Zero.2018.BDRip(AVC).OlLanDGroup.mkv
Формат : Matroska
Версия формата : Version 4 / Version 2
Размер файла : 1,61 Гбайт
Продолжительность : 1 ч. 26 м.
Общий поток : 2653 Кбит/сек
Название фильма : Patient.Zero.2018 #TorpedoUK#
Дата кодирования : UTC 2018-10-18 07:18:46
Программа кодирования : mkvmerge v25.0.0 ('Prog Noir') 64-bit
Библиотека кодирования : libebml v1.3.6 + libmatroska v1.4.9
Видео
Идентификатор : 1
Формат : AVC
Формат/Информация : Advanced Video Codec
Профиль формата : High@L4.1
Параметр CABAC формата : Да
Параметр ReFrames формата : 10 кадров
Идентификатор кодека : V_MPEG4/ISO/AVC
Продолжительность : 1 ч. 26 м.
Битрейт : 2011 Кбит/сек
Ширина : 1024 пикселя
Высота : 428 пикселей
Соотношение сторон : 2,40:1
Режим частоты кадров : Постоянный
Частота кадров : 23,976 (24000/1001) кадра/сек
Цветовое пространство : YUV
Субдискретизация насыщенности : 4:2:0
Битовая глубина : 8 бит
Тип развёртки : Прогрессивная
Бит/(Пиксели*Кадры) : 0.191
Размер потока : 1,22 Гбайт (76%)
Библиотека кодирования : x264 core 146 r2538 121396c
Настройки программы : cabac=1 / ref=10 / deblock=1:-3:-3 / analyse=0x3:0x113 / me=umh / subme=11 / psy=1 / psy_rd=1.00:0.03 / mixed_ref=1 / me_range=48 / chroma_me=1 / trellis=2 / 8x8dct=1 / cqm=0 / deadzone=21,11 / fast_pskip=1 / chroma_qp_offset=-3 / threads=6 / lookahead_threads=1 / sliced_threads=0 / nr=0 / decimate=1 / interlaced=0 / bluray_compat=0 / constrained_intra=0 / bframes=10 / b_pyramid=2 / b_adapt=2 / b_bias=0 / direct=3 / weightb=1 / open_gop=0 / weightp=2 / keyint=240 / keyint_min=23 / scenecut=40 / intra_refresh=0 / rc_lookahead=40 / rc=2pass / mbtree=0 / bitrate=2011 / ratetol=1.0 / qcomp=0.60 / qpmin=0 / qpmax=69 / qpstep=4 / cplxblur=20.0 / qblur=0.5 / vbv_maxrate=50000 / vbv_bufsize=62500 / nal_hrd=none / filler=0 / ip_ratio=1.40 / pb_ratio=1.30 / aq=1:1.00
Язык : English
Default : Да
Forced : Нет
Аудио #1
Идентификатор : 2
Формат : AC-3
Формат/Информация : Audio Coding 3
Расширение режима : CM (complete main)
Параметр Endianness формата : Big
Идентификатор кодека : A_AC3
Продолжительность : 1 ч. 26 м.
Вид битрейта : Постоянный
Битрейт : 192 Кбит/сек
Каналы : 2 канала
Расположение каналов : Front: L R
Частота : 48,0 КГц
Частота кадров : 31,250 кадров/сек (1536 spf)
Битовая глубина : 16 бит
Метод сжатия : С потерями
Размер потока : 119 Мбайт (7%)
Заголовок : MVO [HDRezka Studio]
Язык : Russian
Default : Да
Forced : Нет
Аудио #2
Идентификатор : 3
Формат : AC-3
Формат/Информация : Audio Coding 3
Расширение режима : CM (complete main)
Параметр Endianness формата : Big
Идентификатор кодека : A_AC3
Продолжительность : 1 ч. 26 м.
Вид битрейта : Постоянный
Битрейт : 448 Кбит/сек
Каналы : 6 каналов
Расположение каналов : Front: L C R, Side: L R, LFE
Частота : 48,0 КГц
Частота кадров : 31,250 кадров/сек (1536 spf)
Битовая глубина : 16 бит
Метод сжатия : С потерями
Размер потока : 278 Мбайт (17%)
Заголовок : [Original]
Язык : English
Default : Нет
Forced : Нет
Текст #1
Идентификатор : 4
Формат : UTF-8
Идентификатор кодека : S_TEXT/UTF8
Идентификатор кодека/Информация : UTF-8 Plain Text
Продолжительность : 1 ч. 21 м.
Битрейт : 61 бит/сек
Count of elements : 1084
Размер потока : 36,6 Кбайт (0%)
Заголовок : Full
Язык : English
Default : Нет
Forced : Нет
Текст #2
Идентификатор : 5
Формат : UTF-8
Идентификатор кодека : S_TEXT/UTF8
Идентификатор кодека/Информация : UTF-8 Plain Text
Продолжительность : 1 ч. 21 м.
Битрейт : 68 бит/сек
Count of elements : 1273
Размер потока : 40,9 Кбайт (0%)
Заголовок : SDH
Язык : English
Default : Нет
Forced : Нет
Меню
00:00:00.000 : en:1
00:04:13.545 : en:2
00:12:52.355 : en:3
00:15:21.379 : en:4
00:18:30.693 : en:5
00:25:32.489 : en:6
00:29:51.539 : en:7
00:36:42.408 : en:8
00:40:29.551 : en:9
00:43:31.900 : en:10
00:50:14.427 : en:11
00:55:46.884 : en:12
01:00:10.981 : en:13
01:05:01.187 : en:14
01:09:54.522 : en:15
01:15:22.850 : en:16
[Profile] [PM]
Display posts:    
Reply to topic

Current time is: 21-Nov 04:55

All times are UTC + 3



You cannot post new topics in this forum
You cannot reply to topics in this forum
You cannot edit your posts in this forum
You cannot delete your posts in this forum
You cannot vote in polls in this forum
You cannot attach files in this forum
You cannot download files in this forum