Маленькая Италия / Little Italy (2018) BDRip 1080p | iTunes

Reply to topic
 
Author Message

Monk ®

Gender: Male

Longevity: 1 year 7 months

Posts: 12400

Location: Казань

Post 21-Nov-2018 10:35

[Quote]

Маленькая Италия / Little Italy Год выпуска: 2018
Жанр: Мелодрама, комедия
Выпущено: Канада, США, Firsttake Entertainment
Режиссер: Дональд Питри
В ролях: Хейден Кристенсен, Эмма Робертс, Алисса Милано, Дэнни Айелло, Андреа Мартин, Джейн Сеймур, Гэри Басараба, Адам Феррара, Эндрю Фунг, Васант Саранга
О фильме: Золотые мечты и надежды лелеют многие переселенцы, стремящиеся обрести красивую жизнь на американских просторах. Семейство Лео из мелодраматической ленты «Маленькая Италия», перебирается на Манхэттен из Италии, питая огромные надежды на осуществление знаменитой американской мечты, столь разрекламированной в мире. Почти одновременно с ними, родители Никки, решаются на рискованный шаг, отправляясь в небольшой итальянский район Нью-Йорка. Там бывшие итальянские подданные желают открыть собственную пиццерию и грести деньги лопатами, едва сойдя с морского лайнера. Оба семейства, преодолевая трудности, достигают желаемого, они открывают свои закусочные заведения, обзаводятся постоянными клиентами, особенно среди вечно занятых деловых людей в строгих костюмах, но с итальянской душой и корнями. Предлагаемое разнообразие пиццы привлекает многих любителей быстрой дешевой еды, порождая между заведениями ожесточенность конкуренции. Постепенно темперамент таких отношений начинает выходить за рамки дозволенности, главы семейств уже чувствуют себя на «военном полигоне» посреди маленького квартала. Постоянные перепалки перерастают в не шуточные драки с привлечением полисменов. Однако такая критическая обстановка не мешает детям из конкурирующих семейств, проникнуться настоящими чувствами. Никки и Лео влюбляются и не собираются расставаться, не смотря на воинствующих родных, которые не одобрят этой связи. На первое время ребята решают поиграть в шпионов, выбираясь тайком из дома на свидание, назначаемое обычно за три квартала от дома. Со временем чувства крепнут вместе с уверенностью, что родители никуда не денутся, когда дети объявят им о помолвке и предстоящем торжестве.

Качество: BDRip 1080p
Видео: MPEG-4 AVC, 12.3 Mбит/с, 1920x800
Аудио: Русский (AC3, 6 ch, 384 Кбит/с), английский (AC3, 6 ch, 640 Кбит/с)
Продолжительность: 01:41:29
Перевод: Дублированный [iTunes]
Субтитры: Английские

Скриншоты



MediaInfo

General
Unique ID : 33111017284143163534859862931390329712 (0x18E8F33114B76DC678421BC63E83F370)
Complete name : F:\Video111\Little.Italy.2018.BDRip.1080p.seleZen.mkv
Format : Matroska
Format version : Version 4
File size : 9.44 GiB
Duration : 1 h 41 min
Overall bit rate : 13.3 Mb/s
Movie name : Little Italy 2018 from селезень
Encoded date : UTC 2019-12-24 13:08:26
Writing application : mkvmerge v40.0.0 ('Old Town Road + Pony') 64-bit
Writing library : libebml v1.3.9 + libmatroska v1.5.2
Video
ID : 1
Format : AVC
Format/Info : Advanced Video Codec
Format profile : High@L4.1
Format settings : CABAC / 5 Ref Frames
Format settings, CABAC : Yes
Format settings, Reference : 5 frames
Codec ID : V_MPEG4/ISO/AVC
Duration : 1 h 41 min
Bit rate : 12.3 Mb/s
Width : 1 920 pixels
Height : 800 pixels
Display aspect ratio : 2.40:1
Frame rate mode : Constant
Frame rate : 23.976 (24000/1001) FPS
Color space : YUV
Chroma subsampling : 4:2:0
Bit depth : 8 bits
Scan type : Progressive
Bits/(Pixel*Frame) : 0.334
Stream size : 8.71 GiB (92%)
Title : HJ
Writing library : x264 core 157 r2935 545de2f
Encoding settings : cabac=1 / ref=5 / deblock=1:-3:-3 / analyse=0x3:0x133 / me=umh / subme=10 / psy=1 / psy_rd=1.00:0.00 / mixed_ref=1 / me_range=32 / chroma_me=1 / trellis=2 / 8x8dct=1 / cqm=0 / deadzone=21,11 / fast_pskip=0 / chroma_qp_offset=-2 / threads=24 / lookahead_threads=6 / sliced_threads=0 / nr=0 / decimate=0 / interlaced=0 / bluray_compat=0 / constrained_intra=0 / bframes=16 / b_pyramid=2 / b_adapt=2 / b_bias=0 / direct=3 / weightb=1 / open_gop=0 / weightp=2 / keyint=240 / keyint_min=24 / scenecut=40 / intra_refresh=0 / rc_lookahead=60 / rc=crf / mbtree=0 / crf=16.0 / qcomp=0.60 / qpmin=0 / qpmax=69 / qpstep=4 / vbv_maxrate=62500 / vbv_bufsize=78125 / crf_max=0.0 / nal_hrd=none / filler=0 / ip_ratio=1.40 / pb_ratio=1.30 / aq=2:1.00
Language : English
Default : Yes
Forced : No
Color range : Limited
Color primaries : BT.709
Transfer characteristics : BT.709
Matrix coefficients : BT.709
Audio #1
ID : 2
Format : AC-3
Format/Info : Audio Coding 3
Commercial name : Dolby Digital
Codec ID : A_AC3
Duration : 1 h 41 min
Bit rate mode : Constant
Bit rate : 384 kb/s
Channel(s) : 6 channels
Channel layout : L R C LFE Ls Rs
Sampling rate : 48.0 kHz
Frame rate : 31.250 FPS (1536 SPF)
Bit depth : 16 bits
Compression mode : Lossy
Stream size : 279 MiB (3%)
Title : iTunes
Language : Russian
Service kind : Complete Main
Default : Yes
Forced : Yes
Audio #2
ID : 3
Format : AC-3
Format/Info : Audio Coding 3
Commercial name : Dolby Digital
Codec ID : A_AC3
Duration : 1 h 41 min
Bit rate mode : Constant
Bit rate : 640 kb/s
Channel(s) : 6 channels
Channel layout : L R C LFE Ls Rs
Sampling rate : 48.0 kHz
Frame rate : 31.250 FPS (1536 SPF)
Bit depth : 16 bits
Compression mode : Lossy
Stream size : 465 MiB (5%)
Title : Original
Language : English
Service kind : Complete Main
Default : No
Forced : No
Text
ID : 4
Format : UTF-8
Codec ID : S_TEXT/UTF8
Codec ID/Info : UTF-8 Plain Text
Duration : 1 h 39 min
Bit rate : 93 b/s
Count of elements : 2132
Stream size : 68.2 KiB (0%)
Language : English
Default : No
Forced : No
Menu
00:00:00.000 : :Chapter 1
00:06:46.156 : :Chapter 2
00:13:07.120 : :Chapter 3
00:20:45.536 : :Chapter 4
00:26:26.919 : :Chapter 5
00:33:53.657 : :Chapter 6
00:37:40.008 : :Chapter 7
00:44:32.128 : :Chapter 8
00:48:37.498 : :Chapter 9
00:54:55.250 : :Chapter 10
01:01:10.876 : :Chapter 11
01:07:15.782 : :Chapter 12
01:10:12.041 : :Chapter 13
01:19:27.346 : :Chapter 14
01:28:11.495 : :Chapter 15
01:35:13.166 : :Chapter 16
[Profile] [PM]
Display posts:    
Reply to topic

Current time is: 08-Jul 07:48

All times are UTC + 3



You cannot post new topics in this forum
You cannot reply to topics in this forum
You cannot edit your posts in this forum
You cannot delete your posts in this forum
You cannot vote in polls in this forum
You cannot attach files in this forum
You cannot download files in this forum