Маленький незнакомец / The Little Stranger (2018) BDRip 1080p

Reply to topic
 
Author Message

Monk ®

Gender: Male

Longevity: 11 months 5 days

Posts: 9032

Location: Казань

Post 21-Nov-2018 10:43

[Quote]

Маленький незнакомец / The Little Stranger Год выпуска: 2018
Жанр: Ужасы, триллер, драма, детектив
Выпущено: Ирландия, Великобритания, Франция, Pathé,Potboiler Productions,Element Pictures
Режиссер: Леонард Абрахамсон
В ролях: Донал Глисон, Рут Уилсон, Уилл Поултер, Шарлотта Рэмплинг, Джош Дилан, Кейт Филлипс, Гарри Хадден-Патон, Анна Маделей, Камилла Арведсон
О фильме: Доктор Фарадей, сын горничной, ведет спокойную респектабельную жизнь деревенского врача. Как-то жарким летом 1947 года его вызывают к пациентке в Хандредс-Холл, где когда-то работала его мать. Это поместье уже более двух столетий является домом семьи Айрес, но сейчас находится в упадке, и его обитатели - мать, сын и дочь - преследуются чем-то куда более зловещим, чем умирающий образ жизни. Когда Фарадей начал лечить новую пациентку, он понятия не имел, насколько близко и насколько ужасно история этой семьи связана с его собственным прошлым.

Качество: BDRip 1080p
Видео: MPEG-4 AVC, 9637 Кбит/с, 1920x1036
Аудио: Русский (AC3, 6 ch, 640 Кбит/с), английский (DTS, 6 ch, 1509 Кбит/с)
Продолжительность: 01:51:38
Перевод: Профессиональный многоголосый [Jaskier]
Субтитры: Русские

Скриншоты



MediaInfo

Общее
Уникальный идентификатор : 337161918963772571406605531439927210818 (0xFDA7060998D7AC6D6C07CDF7ACA93342)
Полное имя : The.Little.Stranger.2018.BluRay.1080p.DTS.x264.mkv
Формат : Matroska
Версия формата : Version 4 / Version 2
Размер файла : 9,19 Гбайт
Продолжительность : 1 ч. 51 м.
Общий поток : 11,8 Мбит/сек
Название фильма : The Little Stranger (2018)
Дата кодирования : UTC 2019-01-29 00:49:11
Программа кодирования : mkvmerge v27.0.0 ('Metropolis') 64-bit
Библиотека кодирования : libebml v1.3.6 + libmatroska v1.4.9
Видео
Идентификатор : 1
Формат : AVC
Формат/Информация : Advanced Video Codec
Профиль формата : High@L4.1
Настройки формата : CABAC / 4 Ref Frames
Параметр CABAC формата : Да
Параметр RefFrames формата : 4 кадра
Идентификатор кодека : V_MPEG4/ISO/AVC
Продолжительность : 1 ч. 51 м.
Битрейт : 9637 Кбит/сек
Ширина : 1920 пикселей
Высота : 1036 пикселей
Соотношение сторон : 1,85:1
Режим частоты кадров : Постоянный
Частота кадров : 23,976 (24000/1001) кадра/сек
Цветовое пространство : YUV
Субдискретизация насыщенности : 4:2:0
Битовая глубина : 8 бит
Тип развёртки : Прогрессивная
Бит/(Пиксели*Кадры) : 0.202
Размер потока : 7,51 Гбайт (82%)
Заголовок : CHD
Библиотека кодирования : x264 core 148 r2762+56 6284cf3 t_mod_Custom [8-bit@all X86]
Настройки программы : cabac=1 / ref=4 / deblock=1:-3:-3 / analyse=0x3:0x133 / me=umh / subme=10 / psy=1 / fade_compensate=0.00 / psy_rd=1.00:0.15 / mixed_ref=1 / me_range=32 / chroma_me=1 / trellis=2 / 8x8dct=1 / cqm=0 / deadzone=21,11 / fast_pskip=0 / chroma_qp_offset=-3 / threads=6 / lookahead_threads=1 / sliced_threads=0 / nr=0 / decimate=0 / interlaced=0 / bluray_compat=0 / constrained_intra=0 / fgo=0 / bframes=10 / b_pyramid=2 / b_adapt=2 / b_bias=0 / direct=3 / weightb=1 / open_gop=0 / weightp=2 / keyint=240 / keyint_min=23 / scenecut=40 / intra_refresh=0 / rc_lookahead=60 / rc=crf / mbtree=1 / crf=13.0000 / qcomp=0.40 / qpmin=0:0:0 / qpmax=69:69:69 / qpstep=4 / vbv_maxrate=62500 / vbv_bufsize=78125 / crf_max=0.0 / nal_hrd=none / filler=0 / ip_ratio=1.40 / aq=1:0.90 / aq-sensitivity=10.00 / aq-factor=1.00:1.00:1.00 / aq2=0 / aq3=0
Default : Да
Forced : Нет
Аудио #1
Идентификатор : 2
Формат : AC-3
Формат/Информация : Audio Coding 3
Идентификатор кодека : A_AC3
Продолжительность : 1 ч. 51 м.
Вид битрейта : Постоянный
Битрейт : 640 Кбит/сек
Каналы : 6 каналов
Расположение каналов : Front: L C R, Side: L R, LFE
Частота : 48,0 КГц
Частота кадров : 31,250 кадров/сек (1536 SPF)
Битовая глубина : 16 бит
Метод сжатия : С потерями
Размер потока : 511 Мбайт (5%)
Язык : Russian
ServiceKind/String : Complete Main
Default : Да
Forced : Да
Аудио #2
Идентификатор : 3
Формат : DTS
Формат/Информация : Digital Theater Systems
Идентификатор кодека : A_DTS
Продолжительность : 1 ч. 51 м.
Вид битрейта : Постоянный
Битрейт : 1509 Кбит/сек
Каналы : 6 каналов
Расположение каналов : Front: L C R, Side: L R, LFE
Частота : 48,0 КГц
Частота кадров : 93,750 кадра/сек (512 SPF)
Битовая глубина : 24 бит
Метод сжатия : С потерями
Размер потока : 1,18 Гбайт (13%)
Заголовок : English DTS5.1@1509Kbps
Язык : English
Default : Нет
Forced : Нет
Текст
Идентификатор : 4
Формат : UTF-8
Идентификатор кодека : S_TEXT/UTF8
Идентификатор кодека/Информация : UTF-8 Plain Text
Продолжительность : 1 ч. 41 м.
Битрейт : 85 бит/сек
ElementCount : 1364
Размер потока : 63,5 Кбайт (0%)
Заголовок : Full
Язык : Russian
Default : Нет
Forced : Нет
[Profile] [PM]
Display posts:    
Reply to topic

Current time is: 19-Oct 16:35

All times are UTC + 3



You cannot post new topics in this forum
You cannot reply to topics in this forum
You cannot edit your posts in this forum
You cannot delete your posts in this forum
You cannot vote in polls in this forum
You cannot attach files in this forum
You cannot download files in this forum