Голос. Перезагрузка [7 сезон: 1-13 выпуски из 13] (2018) HDTV 1080i от GeneralFilm

Reply to topic
 
Author Message

olegka7373 ®

Gender: Male

Longevity: 1 year

Posts: 245

Location: Россия, Новокузнецк

Post 16-Nov-2018 09:11

[Quote]

Голос - 7
Год выпуска: 2018
Жанр: Музыка, концерт
Выпущено: Россия, Первый канал, Красный квадрат, Talpa Productions
Наставники: Константин Меладзе, Сергей Шнуров, Ани Лорак, Баста
Ведущий: Дмитрий Нагиев
О фильме: Один из самых ярких шоу-проектов в очередной раз продемонстрирует невероятные результаты от альянса обладателей незаурядных голосов и опытных наставников, позволяющих талантам раскрыться и расцвести. Великолепные голоса, уникальные музыкальные постановки, молодые и не очень участники, которым придется испытать радость творчества, счастье триумфа и слезы поражения – все это в полной мере представлено в новом сезоне «Голоса» - проекта, дающего каждому желающему уникальный шанс проявить себя в вокальном творчестве.
Качество: HDTV (1080i)
Видео: MPEG-TS AVC, ~ 7100 Кбит/с, 1920x1080
Аудио: Русский (AC3, 2 ch, 384 Кбит/с), (MP2, 2 ch, 192 Кбит/с)
Продолжительность: 13 х ~ 01:40:00
Перевод: Не требуется
Субтитры: нет

Скриншоты


MediaInfo

Общее
Идентификатор : 1 (0x1)
Полное имя : D:\Запись\Golos-7. Perezagruzka.HDTV(1080i).GeneralFilm\01.Golos-7. Perezagruzka.HDTV(1080i).GeneralFilm.ts
Формат : MPEG-TS
Размер файла : 5,48 Гбайт
Продолжительность : 1 ч. 36 м.
Режим общего битрейта : Переменный
Общий поток : 8125 Кбит/сек
Видео
Идентификатор : 2931 (0xB73)
Идентификатор меню : 1079 (0x437)
Формат : AVC
Формат/Информация : Advanced Video Codec
Профиль формата : High@L4
Параметр CABAC формата : Да
Параметр ReFrames формата : 4 кадра
Идентификатор кодека : 27
Продолжительность : 1 ч. 36 м.
Битрейт : 7142 Кбит/сек
Ширина : 1920 пикселей
Высота : 1080 пикселей
Соотношение сторон : 16:9
Частота кадров : 25,000 кадров/сек
Цветовое пространство : YUV
Субдискретизация насыщенности : 4:2:0
Битовая глубина : 8 бит
Тип развёртки : MBAFF
Метод сохранения типа развёртки : Чередующиеся поля
Порядок развёртки : Верхнее поле первое
Бит/(Пиксели*Кадры) : 0.138
Размер потока : 4,81 Гбайт (88%)
Аудио #1
Идентификатор : 2913 (0xB61)
Идентификатор меню : 1079 (0x437)
Формат : AC-3
Формат/Информация : Audio Coding 3
Расширение режима : CM (complete main)
Параметр Endianness формата : Big
Идентификатор кодека : 129
Продолжительность : 1 ч. 36 м.
Вид битрейта : Постоянный
Битрейт : 384 Кбит/сек
Каналы : 6 каналов
Расположение каналов : Front: L C R, Side: L R, LFE
Частота : 48,0 КГц
Частота кадров : 31,250 кадров/сек (1536 spf)
Битовая глубина : 16 бит
Метод сжатия : С потерями
Задержка видео : -200 мс.
Размер потока : 265 Мбайт (5%)
Язык : Russian
Аудио #2
Идентификатор : 2914 (0xB62)
Идентификатор меню : 1079 (0x437)
Формат : MPEG Audio
Версия формата : Version 1
Профиль формата : Layer 2
Режим : Joint stereo
Расширение режима : Intensity Stereo + MS Stereo
Идентификатор кодека : 3
Продолжительность : 1 ч. 36 м.
Вид битрейта : Постоянный
Битрейт : 192 Кбит/сек
Каналы : 2 канала
Частота : 48,0 КГц
Метод сжатия : С потерями
Задержка видео : -200 мс.
Размер потока : 133 Мбайт (2%)
Язык : Russian
Текст
Идентификатор : 2915 (0xB63)-800
Идентификатор меню : 1079 (0x437)
Формат : Teletext Subtitle

Внимание! Раздача ведётся путём добавления новых серий

Раздача ведётся путём добавления новых серий, при каждом добавлении создаётся новый торрент. Чтобы начать докачку новой серии, пользователям необходимо сделать следующее:
- Остановить скачивание.
- Удалить старый торрент у себя из клиента (старые серии удалять не надо).
- Скачать новый торрент и запустить его у себя в клиенте вместо старого, при этом указать клиенту путь в старую папку куда и должно происходить скачивание новых серий.
Ваш клиент при этом должен произвести хеширование (проверку) старой папки (если не производит сам - помогите ему сделать это), и будет докачивать только те серии которых у вас ещё нет. Старые серии при этом не удаляются, а продолжают раздаваться!
Если вы уже удалили старые серии, то предотвратить повторную закачку старых серий можно, отжав галочку в соответствующих местах при запуске нового торрента. По возможности, желательно не удалять старые серии как можно дольше, чтобы релизер не столько продолжал раздавать старые серии, а смог сконцентрироваться на новых.
Релиз:
Огромная благодарность ValkiriaGF за созданный постер к раздаче


Last edited by olegka7373 on 2019-01-01 22:06; edited 6 times in total
[Profile] [PM]

Xardas

Gender: Male

Longevity: 1 year

Posts: 1

Post 07-Dec-2018 21:53 (after 21 day)

[Quote]

Когда 9 выпуск??
[Profile] [PM]
Display posts:    
Reply to topic

Current time is: 08-Dec 07:07

All times are UTC + 3



You cannot post new topics in this forum
You cannot reply to topics in this forum
You cannot edit your posts in this forum
You cannot delete your posts in this forum
You cannot vote in polls in this forum
You cannot attach files in this forum
You cannot download files in this forum