Частная война / A Private War (2018) BDRip AVC

Ответить на тему
 
Автор Сообщение

Monk ®

Пол: Мужской

Стаж: 3 месяца 3 дня

Сообщений: 3233

Откуда: Казань

Создавать темы 11-Фев-2019 14:30

[Цитировать]

Частная война / A Private War Год выпуска: 2018
Жанр: Драма, военный, биография
Выпущено: Великобритания, США, Acacia Filmed Entertainment
Режиссер: Мэтт Хейнеман
В ролях: Розамунд Пайк, Том Холландер, Джейми Дорнан, Фэй Марсей, Стэнли Туччи, Никки Амука-Бёрд, Грег Уайз, Александра Моэн, Кори Джонсон, Аманда Дрю
О фильме: Фильм о Мэри Колвин - военном корреспонденте, который отправляется в самые горячие точки мира. Её репортажи освещают события в Косово, Чечне, Восточном Тиморе и на Ближнем Востоке.
Качество: BDRip AVC
Видео: MPEG-4 AVC, 1823 Кбит/с, 1024x438
Аудио: Русский (AC3, 6 ch, 448 Кбит/с), английский (AC3, 6 ch, 448 Кбит/с)
Продолжительность: 01:50:35
Перевод: Любительский многоголосый [Horizon Studio]
Субтитры: Английские

Скриншоты



MediaInfo

Общее
Уникальный идентификатор : 50395447736470080890382564735100679680 (0x25E9CF68539969DC35F57FF75CEC7600)
Полное имя : F:\OlLanDGroup\A.Private.War.2018.BDRip(AVC).OlLanDGroup.mkv
Формат : Matroska
Версия формата : Version 4 / Version 2
Размер файла : 2,10 Гбайт
Продолжительность : 1 ч. 50 м.
Общий поток : 2720 Кбит/сек
Название фильма : A.Private.War.2018 #TorpedoUK#
Дата кодирования : UTC 2019-02-02 18:03:25
Программа кодирования : mkvmerge v29.0.0 ('Like It Or Not') 64-bit
Библиотека кодирования : libebml v1.3.6 + libmatroska v1.4.9
Видео
Идентификатор : 1
Формат : AVC
Формат/Информация : Advanced Video Codec
Профиль формата : High@L4.1
Параметр CABAC формата : Да
Параметр ReFrames формата : 10 кадров
Идентификатор кодека : V_MPEG4/ISO/AVC
Продолжительность : 1 ч. 50 м.
Битрейт : 1823 Кбит/сек
Ширина : 1024 пикселя
Высота : 438 пикселей
Соотношение сторон : 2,35:1
Режим частоты кадров : Постоянный
Частота кадров : 23,976 (24000/1001) кадра/сек
Цветовое пространство : YUV
Субдискретизация насыщенности : 4:2:0
Битовая глубина : 8 бит
Тип развёртки : Прогрессивная
Бит/(Пиксели*Кадры) : 0.170
Размер потока : 1,41 Гбайт (67%)
Библиотека кодирования : x264 core 146 r2538 121396c
Настройки программы : cabac=1 / ref=10 / deblock=1:-3:-3 / analyse=0x3:0x113 / me=umh / subme=11 / psy=1 / psy_rd=0.98:0.04 / mixed_ref=1 / me_range=48 / chroma_me=1 / trellis=2 / 8x8dct=1 / cqm=0 / deadzone=21,11 / fast_pskip=1 / chroma_qp_offset=-3 / threads=6 / lookahead_threads=1 / sliced_threads=0 / nr=0 / decimate=1 / interlaced=0 / bluray_compat=0 / constrained_intra=0 / bframes=11 / b_pyramid=2 / b_adapt=2 / b_bias=0 / direct=3 / weightb=1 / open_gop=0 / weightp=2 / keyint=240 / keyint_min=23 / scenecut=40 / intra_refresh=0 / rc_lookahead=40 / rc=2pass / mbtree=0 / bitrate=1823 / ratetol=1.0 / qcomp=0.60 / qpmin=0 / qpmax=69 / qpstep=4 / cplxblur=20.0 / qblur=0.5 / vbv_maxrate=50000 / vbv_bufsize=62500 / nal_hrd=none / filler=0 / ip_ratio=1.40 / pb_ratio=1.30 / aq=1:1.00
Язык : English
Default : Да
Forced : Нет
Аудио #1
Идентификатор : 2
Формат : AC-3
Формат/Информация : Audio Coding 3
Расширение режима : CM (complete main)
Параметр Endianness формата : Big
Идентификатор кодека : A_AC3
Продолжительность : 1 ч. 50 м.
Вид битрейта : Постоянный
Битрейт : 448 Кбит/сек
Каналы : 6 каналов
Расположение каналов : Front: L C R, Side: L R, LFE
Частота : 48,0 КГц
Частота кадров : 31,250 кадров/сек (1536 spf)
Битовая глубина : 16 бит
Метод сжатия : С потерями
Размер потока : 354 Мбайт (16%)
Заголовок : DVO [Horizon Studio]
Язык : Russian
Default : Да
Forced : Нет
Аудио #2
Идентификатор : 3
Формат : AC-3
Формат/Информация : Audio Coding 3
Расширение режима : CM (complete main)
Параметр Endianness формата : Big
Идентификатор кодека : A_AC3
Продолжительность : 1 ч. 50 м.
Вид битрейта : Постоянный
Битрейт : 448 Кбит/сек
Каналы : 6 каналов
Расположение каналов : Front: L C R, Side: L R, LFE
Частота : 48,0 КГц
Частота кадров : 31,250 кадров/сек (1536 spf)
Битовая глубина : 16 бит
Метод сжатия : С потерями
Размер потока : 354 Мбайт (16%)
Заголовок : [Original]
Язык : English
Default : Нет
Forced : Нет
Текст #1
Идентификатор : 4
Формат : UTF-8
Идентификатор кодека : S_TEXT/UTF8
Идентификатор кодека/Информация : UTF-8 Plain Text
Продолжительность : 1 ч. 41 м.
Битрейт : 44 бит/сек
Count of elements : 959
Размер потока : 32,8 Кбайт (0%)
Заголовок : Full
Язык : English
Default : Нет
Forced : Нет
Текст #2
Идентификатор : 5
Формат : UTF-8
Идентификатор кодека : S_TEXT/UTF8
Идентификатор кодека/Информация : UTF-8 Plain Text
Продолжительность : 1 ч. 46 м.
Битрейт : 51 бит/сек
Count of elements : 1309
Размер потока : 40,2 Кбайт (0%)
Заголовок : SDH
Язык : English
Default : Нет
Forced : Нет
Меню
00:00:00.000 : en:00:00:00.000
00:05:16.149 : en:00:05:16.149
00:11:12.589 : en:00:11:12.589
00:17:24.669 : en:00:17:24.669
00:22:27.179 : en:00:22:27.179
00:30:37.961 : en:00:30:37.961
00:36:41.241 : en:00:36:41.241
00:39:07.011 : en:00:39:07.011
00:47:09.785 : en:00:47:09.785
00:51:01.183 : en:00:51:01.183
00:56:59.166 : en:00:56:59.166
01:02:05.180 : en:01:02:05.180
01:06:14.095 : en:01:06:14.095
01:11:58.356 : en:01:11:58.356
01:16:49.104 : en:01:16:49.104
01:21:28.759 : en:01:21:28.759
01:25:16.653 : en:01:25:16.653
01:30:06.776 : en:01:30:06.776
01:37:45.902 : en:01:37:45.902
01:42:54.335 : en:01:42:54.335
[Профиль] [ЛС]
Показать сообщения:    
Ответить на тему

Текущее время: 17-Фев 19:55

Часовой пояс: UTC + 3



Вы не можете начинать темы
Вы не можете отвечать на сообщения
Вы не можете редактировать свои сообщения
Вы не можете удалять свои сообщения
Вы не можете голосовать в опросах
Вы не можете прикреплять файлы к сообщениям
Вы не можете скачивать файлы