Вечеринка монстров / Monster Party (2018) BDRip AVC | HDRezka Studio

Reply to topic
 
Author Message

Monk ®

Gender: Male

Longevity: 11 months 3 days

Posts: 9023

Location: Казань

Post 21-Nov-2018 11:28

[Quote]

Вечеринка монстров / Monster Party Год выпуска: 2018
Жанр: Ужасы, триллер, детектив
Выпущено: США, Automatik, Dark Web Productions, Defiant Studios
Режиссер: Крис фон Хоффманн
В ролях: Джулиан МакМэхон, Робин Танни, Сэм Страйк, Вирджиния Гарднер, Брэндон Майкл Холл, Эрин Мориарти, Киан Лоули, Лэнс Реддик, Диего Бонета, Джэми Уорд
О фильме: Трое подростков проникают в дом богачей, чтобы ограбить его во время званого обеда, но оказываются в смертельной ловушке.

Качество: BDRip AVC
Видео: MPEG-4 AVC, 1947 Кбит/с, 1024x426
Аудио: Русский (AC3, 2 ch, 192 Кбит/с), английский (AC3, 6 ch, 448 Кбит/с)
Продолжительность: 01:29:13
Перевод: Профессиональный многоголосый [HDRezka Studio]
Субтитры: Английские

Скриншоты



MediaInfo

Общее
Уникальный идентификатор : 259025719293880906158815620667172465 (0x31E2F436E08042001337F9F98E6671)
Полное имя : F:\OlLanDGroup\Monster.Party.2018.BDRip(AVC).OlLanDGroup.mkv
Формат : Matroska
Версия формата : Version 4 / Version 2
Размер файла : 1,61 Гбайт
Продолжительность : 1 ч. 29 м.
Общий поток : 2583 Кбит/сек
Название фильма : Monster Party 2018 #TorpedoUK#
Дата кодирования : UTC 2019-10-08 11:02:14
Программа кодирования : mkvmerge v29.0.0 ('Like It Or Not') 64-bit
Библиотека кодирования : libebml v1.3.6 + libmatroska v1.4.9
Видео
Идентификатор : 1
Формат : AVC
Формат/Информация : Advanced Video Codec
Профиль формата : High@L4.1
Параметр CABAC формата : Да
Параметр ReFrames формата : 10 кадров
Идентификатор кодека : V_MPEG4/ISO/AVC
Продолжительность : 1 ч. 29 м.
Битрейт : 1947 Кбит/сек
Ширина : 1024 пикселя
Высота : 426 пикселей
Соотношение сторон : 2,40:1
Режим частоты кадров : Постоянный
Частота кадров : 23,976 (24000/1001) кадра/сек
Цветовое пространство : YUV
Субдискретизация насыщенности : 4:2:0
Битовая глубина : 8 бит
Тип развёртки : Прогрессивная
Бит/(Пиксели*Кадры) : 0.186
Размер потока : 1,21 Гбайт (75%)
Библиотека кодирования : x264 core 146 r2538 121396c
Настройки программы : cabac=1 / ref=10 / deblock=1:-2:-3 / analyse=0x3:0x113 / me=umh / subme=11 / psy=1 / psy_rd=0.90:0.10 / mixed_ref=1 / me_range=48 / chroma_me=1 / trellis=2 / 8x8dct=1 / cqm=0 / deadzone=21,11 / fast_pskip=1 / chroma_qp_offset=-6 / threads=6 / lookahead_threads=1 / sliced_threads=0 / nr=0 / decimate=1 / interlaced=0 / bluray_compat=0 / constrained_intra=0 / bframes=11 / b_pyramid=2 / b_adapt=2 / b_bias=0 / direct=3 / weightb=1 / open_gop=0 / weightp=2 / keyint=240 / keyint_min=23 / scenecut=40 / intra_refresh=0 / rc_lookahead=40 / rc=2pass / mbtree=0 / bitrate=1947 / ratetol=1.0 / qcomp=0.60 / qpmin=0 / qpmax=69 / qpstep=4 / cplxblur=20.0 / qblur=0.5 / vbv_maxrate=50000 / vbv_bufsize=62500 / nal_hrd=none / filler=0 / ip_ratio=1.40 / pb_ratio=1.30 / aq=1:1.00
Язык : English
Default : Да
Forced : Нет
Аудио #1
Идентификатор : 2
Формат : AC-3
Формат/Информация : Audio Coding 3
Расширение режима : CM (complete main)
Параметр Endianness формата : Big
Идентификатор кодека : A_AC3
Продолжительность : 1 ч. 29 м.
Вид битрейта : Постоянный
Битрейт : 192 Кбит/сек
Каналы : 2 канала
Расположение каналов : Front: L R
Частота : 48,0 КГц
Частота кадров : 31,250 кадров/сек (1536 spf)
Битовая глубина : 16 бит
Метод сжатия : С потерями
Размер потока : 123 Мбайт (7%)
Заголовок : MVO [HDRezka Studio]
Язык : Russian
Default : Да
Forced : Нет
Аудио #2
Идентификатор : 3
Формат : AC-3
Формат/Информация : Audio Coding 3
Расширение режима : CM (complete main)
Параметр Endianness формата : Big
Идентификатор кодека : A_AC3
Продолжительность : 1 ч. 29 м.
Вид битрейта : Постоянный
Битрейт : 448 Кбит/сек
Каналы : 6 каналов
Расположение каналов : Front: L C R, Side: L R, LFE
Частота : 48,0 КГц
Частота кадров : 31,250 кадров/сек (1536 spf)
Битовая глубина : 16 бит
Метод сжатия : С потерями
Размер потока : 286 Мбайт (17%)
Заголовок : [Original]
Язык : English
Default : Нет
Forced : Нет
Текст #1
Идентификатор : 4
Формат : UTF-8
Идентификатор кодека : S_TEXT/UTF8
Идентификатор кодека/Информация : UTF-8 Plain Text
Продолжительность : 1 ч. 25 м.
Битрейт : 38 бит/сек
Count of elements : 871
Размер потока : 24,1 Кбайт (0%)
Заголовок : Full
Язык : English
Default : Нет
Forced : Нет
Текст #2
Идентификатор : 5
Формат : UTF-8
Идентификатор кодека : S_TEXT/UTF8
Идентификатор кодека/Информация : UTF-8 Plain Text
Продолжительность : 1 ч. 28 м.
Битрейт : 40 бит/сек
Count of elements : 1057
Размер потока : 26,3 Кбайт (0%)
Заголовок : SDH
Язык : English
Default : Нет
Forced : Нет
Меню
00:00:00.000 : en:Chapter 01
00:08:04.150 : en:Chapter 02
00:19:06.979 : en:Chapter 03
00:27:55.465 : en:Chapter 04
00:38:40.276 : en:Chapter 05
00:47:27.678 : en:Chapter 06
01:05:47.944 : en:Chapter 07
01:24:13.006 : en:Chapter 08
01:29:13.348 : en:Chapter 09
[Profile] [PM]
Display posts:    
Reply to topic

Current time is: 18-Oct 05:29

All times are UTC + 3



You cannot post new topics in this forum
You cannot reply to topics in this forum
You cannot edit your posts in this forum
You cannot delete your posts in this forum
You cannot vote in polls in this forum
You cannot attach files in this forum
You cannot download files in this forum