Бойз бэнд / BaseBoys [1 сезон: 1-22 серии из 22] (2018) HDTVRip 720p | GoldTeam

Ответить на тему
 
Автор Сообщение

Monk ®

Пол: Мужской

Стаж: 3 месяца 1 день

Сообщений: 3233

Откуда: Казань

Создавать темы 21-Ноя-2018 11:59

[Цитировать]

Бойз бэнд / BaseBoys Год выпуска: 2018
Жанр: Семейный
Выпущено: Дания, Danmarks Radio (DR), Nordvision, Norsk Rikskringkasting (NRK), Sveriges Television (SVT), Yleisradio (YLE)
Режиссер: Джонанас Майджард, Мортен Бойсдал Харловсен, Катрин Де Клауман
В ролях: Бастиан Ларс Андерсон, Тобиас Бастиан Тем Бюро, Морган Бачелор, Иса Торласиус, Ида Саллинг Вьегант, Анна Шугард Франденсен, Финн Норбигард, Луна Бойер Лозензен, Медина Алсвик
О фильме: Четыре школьника, которые обычно проводили время за игрой в Контр-Страйк. Решаются принять участие в музыкальном конкурсе, победа в котором, как они считали решит их проблемы. Но, неожиданно, они становятся популярным Бойз-Бендом. Успех и слава испытает на прочность их дружбу.
Качество: HDTVRip 720p
Видео: MPEG-4 AVC, ~ 2000 Кбит/с, 1280x720
Аудио: Русский (AAC, 2 ch, 192 Кбит/с)
Продолжительность: 22 х ~ 00:15:00
Перевод: Любительский одноголосый [GoldTeam]
Имеется реклама

Скриншоты



MediaInfo

Complete name : F:\Base Boys S01\BaseBoys01.mp4
Format : MPEG-4
Format profile : Base Media / Version 2
Codec ID : mp42 (mp42/isom)
File size : 250 MiB
Duration : 15 min 58 s
Overall bit rate mode : Variable
Overall bit rate : 2 189 kb/s
Encoded date : UTC 2018-11-13 10:01:23
Tagged date : UTC 2018-11-13 10:01:23
Video
ID : 2
Format : AVC
Format/Info : Advanced Video Codec
Format profile : Main@L3.2
Format settings, CABAC : Yes
Format settings, ReFrames : 3 frames
Codec ID : avc1
Codec ID/Info : Advanced Video Coding
Duration : 15 min 58 s
Bit rate mode : Variable
Bit rate : 2 000 kb/s
Width : 1 280 pixels
Height : 720 pixels
Display aspect ratio : 16:9
Frame rate mode : Constant
Frame rate : 23.976 (24000/1001) FPS
Standard : NTSC
Color space : YUV
Chroma subsampling : 4:2:0
Bit depth : 8 bits
Scan type : Progressive
Bits/(Pixel*Frame) : 0.091
Stream size : 228 MiB (91%)
Language : English
Encoded date : UTC 2018-11-13 10:01:23
Tagged date : UTC 2018-11-13 10:01:23
Color range : Limited
Audio
ID : 1
Format : AAC
Format/Info : Advanced Audio Codec
Format profile : LC
Codec ID : 40
Duration : 15 min 58 s
Bit rate mode : Constant
Bit rate : 192 kb/s
Channel(s) : channel0
Channel(s)_Original : 2 channels
Channel positions : Front: L R
Sampling rate : 48.0 kHz
Frame rate : 46.875 FPS (1024 spf)
Compression mode : Lossy
Stream size : 21.9 MiB (9%)
Language : English
Encoded date : UTC 2018-11-13 10:01:23
Tagged date : UTC 2018-11-13 10:01:23
[Профиль] [ЛС]
Показать сообщения:    
Ответить на тему

Текущее время: 16-Фев 11:21

Часовой пояс: UTC + 3



Вы не можете начинать темы
Вы не можете отвечать на сообщения
Вы не можете редактировать свои сообщения
Вы не можете удалять свои сообщения
Вы не можете голосовать в опросах
Вы не можете прикреплять файлы к сообщениям
Вы не можете скачивать файлы