Марьина роща [1-16 серия из 16] (2012) HDTVRip 720p от Files-x

Reply to topic
 
Author Message

papa1951deda ®

Gender: Male

Longevity: 7 months 5 days

Posts: 256

Location: Казахстан

Post 21-Nov-2018 17:57

[Quote]

Марьина роща Год выпуска: 2012
Жанр: Детектив, криминал
Выпущено: "Мостелефильм"
Режиссёр: Александр Хван
В ролях: Александр Домогаров, Евгения Крюкова, Виталий Кудрявцев, Сергей Комаров, Савва Гусев, Елена Доронина, Яна Львова, Наталья Литвинова, Виктор Тереля, Дмитрий Смирнов, Артем Лысков, Виталий Горшков, Виктор Маркин, Олег Алмазов, Сергей Потапов, Юрий Шлыков, Борис Романов, Константин Желдин, Петр Зайченко, Ольга Науменко, Татьяна Мухина, Егор Баринов, Людмила Давыдова, Ирина Гордина, Полина Лунегова, Татьяна Чернопятова, Алексей Михайлов, Ксения Баринова, Игорь Филиппов, Дмитрий Гусев, Евгений Харланов, Михаил Горский, Анастасия Платонова, Сергей Дьячков, Константин Глушков, Михаил Солодко, Максим Макаров, Игорь Огурцов и другие.
О фильме: Вернувшись после победы с фронта оперативник МУРА Константин Трошин узнает, что там он больше не работает. А причина — в конфликте с влиятельным генералом НКГБ. Но Трошин не намерен отступать, так как без работы в органах жизнь его теряет всякий смысл. Он устраивается на работу в самом неблагополучном районе Москвы — Марьиной Роще. И там же из-зи личных проблем поселиться жить в коммуналке. Таким образом, Трошин оказался в самом центре криминальной среды. Он тесно сходится с ее обитателями. И, может быть, из-за этого ему удается раскрывать самые дерзкие и хладнокровные преступления. Убийства, налеты и аферы — здесь не в новинку. Но Трошин хочет идти дальше и искоренить преступление как таковое. А люди в ответ на его желание идут к нему, как третейскому судье, они доверяют ему, когда надо отделять добро от зла.
Качество: HDTVRip 720p
Видео: MPEG 4 AVC, ~ 3850 Кбит/с, 1280 х 720, 25 кадр/с
Аудио: AAC, 2 ch, 192 Кбит/с
Продолжительность: 16 x ~ 00:45:00
Перевод: Не требуется
Субтитры: Нет

Скриншоты


MediaInfo

Общее
Уникальный идентификатор : 203117200708077074249837919138823220688 (0x98CEF32D108375FA9A04BB23A3932DD0)
Полное имя : E:\Downloads\55\Марьина роща HDTVRip 720p\Марьина роща 04_серия_ HDTVRip_ 720p_by_Серій1779.mkv
Формат : Matroska
Размер файла : 1,25 Гбайт
Продолжительность : 44 м.
Общий поток : 4040 Кбит/сек
Дата кодирования : UTC 2013-03-23 20:31:45
Программа кодирования : mkvmerge v5.6.0 ('Kenya Kane') built on Jun 29 2012 15:01:44
Библиотека кодирования : libebml v1.2.3 libmatroska v1.3.0
Видео
Идентификатор : 1
Формат : AVC
Формат/Информация : Advanced Video Codec
Профиль формата : High@L4.0
Параметр CABAC формата : Да
Параметр ReFrames формата : 9 кадров
Идентификатор кодека : V_MPEG4/ISO/AVC
Продолжительность : 44 м.
Битрейт : 3850 Кбит/сек
Ширина : 1280 пикс.
Высота : 720 пикс.
Соотношение сторон : 16:9
Частота кадров : 25,000 кадр/сек
Цветовое пространство : YUV
Подвыборка цветности : 4:2:0
Битовая глубина : 8 бит
Тип развёртки : Прогрессивная
Бит/(Пиксели*Кадры) : 0.167
Размер потока : 1,17 Гбайт (93%)
Библиотека кодирования : x264 core 125 r2200 999b753
Настройки программы : cabac=1 / ref=9 / deblock=1:-2:-2 / analyse=0x3:0x133 / me=umh / subme=9 / psy=1 / psy_rd=1.10:0.15 / mixed_ref=1 / me_range=32 / chroma_me=1 / trellis=2 / 8x8dct=1 / cqm=0 / deadzone=21,11 / fast_pskip=0 / chroma_qp_offset=-3 / threads=3 / lookahead_threads=1 / sliced_threads=0 / nr=0 / decimate=1 / interlaced=0 / bluray_compat=0 / constrained_intra=0 / bframes=9 / b_pyramid=2 / b_adapt=2 / b_bias=0 / direct=3 / weightb=1 / open_gop=0 / weightp=2 / keyint=250 / keyint_min=25 / scenecut=40 / intra_refresh=0 / rc=2pass / mbtree=0 / bitrate=3850 / ratetol=1.0 / qcomp=0.60 / qpmin=0 / qpmax=69 / qpstep=4 / cplxblur=20.0 / qblur=0.5 / ip_ratio=1.40 / pb_ratio=1.30 / aq=2:0.80
Основные цвета : BT.470-6 System B, BT.470-6 System G, BT.601-6 625, BT.1358 625, BT.1700 625 PAL, BT.1700 625 SECAM
Характеристики трансфера : BT.470-6 System B, BT.470-6 System G
Коэффициенты матрицы : BT.470-6 System B, BT.470-6 System G, BT.601-6 625, BT.1358 625, BT.1700 625 PAL, BT.1700 625 SECAM, IEC 61966-2-4 601
Аудио
Идентификатор : 2
Формат : MPEG Audio
Версия формата : Version 1
Профиль формата : Layer 2
Идентификатор кодека : A_MPEG/L2
Идентификатор кодека/Подсказка : MP2
Продолжительность : 44 м.
Вид битрейта : Постоянный
Битрейт : 192 Кбит/сек
Каналы : 2 канала
Частота : 48,0 КГц
Метод сжатия : С потерями
Размер потока : 61,1 Мбайт (5%)

h264 log

x264 [info]: frame I:587 Avg QP:17.66 size:112844
x264 [info]: frame P:13531 Avg QP:20.32 size: 37977
x264 [info]: frame B:52580 Avg QP:22.49 size: 13364
x264 [info]: consecutive B-frames: 1.6% 1.3% 9.5% 10.6% 10.6% 64.0% 1.7% 0.3% 0.2% 0.1%
x264 [info]: mb I I16..4: 8.4% 77.2% 14.4%
x264 [info]: mb P I16..4: 1.8% 10.2% 1.2% P16..4: 49.8% 19.3% 13.1% 0.6% 0.2% skip: 3.9%
x264 [info]: mb B I16..4: 0.1% 0.7% 0.1% B16..8: 42.9% 6.9% 1.9% direct: 7.7% skip:39.7% L0:37.8% L1:53.7% BI: 8.4%
x264 [info]: 8x8 transform intra:77.1% inter:61.6%
x264 [info]: direct mvs spatial:99.3% temporal:0.7%
x264 [info]: coded y,uvDC,uvAC intra: 83.2% 75.5% 38.5% inter: 27.2% 20.8% 0.4%
x264 [info]: i16 v,h,dc,p: 29% 18% 9% 44%
x264 [info]: i8 v,h,dc,ddl,ddr,vr,hd,vl,hu: 12% 9% 6% 9% 13% 14% 13% 12% 13%
x264 [info]: i4 v,h,dc,ddl,ddr,vr,hd,vl,hu: 11% 10% 3% 9% 14% 14% 14% 11% 13%
x264 [info]: i8c dc,h,v,p: 36% 27% 22% 15%
x264 [info]: Weighted P-Frames: Y:4.5% UV:2.6%
x264 [info]: ref P L0: 46.1% 12.4% 20.1% 5.5% 5.3% 3.3% 3.4% 1.7% 2.0% 0.3% 0.0%
x264 [info]: ref B L0: 87.1% 7.6% 2.3% 1.1% 0.7% 0.6% 0.4% 0.2%
x264 [info]: ref B L1: 95.7% 4.3%
x264 [info]: kb/s:3846.47
x264 [total]: encoded 66698 frames, 2.49 fps, 3846.47 kb/s
Релиз от:
[Profile] [PM]
Display posts:    
Reply to topic

Current time is: 26-Jun 14:02

All times are UTC + 3



You cannot post new topics in this forum
You cannot reply to topics in this forum
You cannot edit your posts in this forum
You cannot delete your posts in this forum
You cannot vote in polls in this forum
You cannot attach files in this forum
You cannot download files in this forum