Проклятие монахини / The Nun (2018) WEB-DLRip AVC от R.G.GeneralFilm | iTunes

Ответить на тему
 
Автор Сообщение

Monk ®

Пол: Мужской

Стаж: 3 месяца 1 день

Сообщений: 3233

Откуда: Казань

Создавать темы 21-Ноя-2018 19:42

[Цитировать]

Проклятие монахини / The Nun Год выпуска: 2018
Жанр: Ужасы, триллер, детектив
Выпущено: США, Atomic Monster,New Line Cinema,The Safran Company
Режиссер: Корин Харди
В ролях: Демиан Бишир, Таисса Фармига, Йонас Блоке, Бонни Ааронс, Ингрид Бису, Шарлотта Хоуп, Сандра Телес, Аугуст Матуро, Джек Фальк, Линетт Газа
О фильме: Когда в уединенном монастыре в Румынии совершает самоубийство молодая монахиня, расследовать происшествие Ватикан отправляет священника с туманным прошлым и послушницу на пороге невозвратных обетов. Рискуя не только жизнями, но и верой, и даже своими душами, они сталкиваются со злобной силой, принявшей облик демонической монахини, а монастырь становится полем ужасающей битвы между живыми и проклятыми.

Качество: WEB-DLRip AVC
Видео: MPEG-4 AVC, 1400 Кбит/с, 1024x430
Аудио: Русский (AC3, 6 ch, 384 Кбит/с)
Продолжительность: 01:36:30
Перевод: Дублированный [iTunes]
Субтитры: русские (Forced),(Full)
Навигация по главам: есть

Скриншоты



MediaInfo

General
Unique ID : 170295761165424922480440488261768608435 (0x801DC544EEA04A19BC54308D9A327AB3)
Complete name : E:\Запись с тв\The Nun.2018.WEB-DLRip-AVC.by.White Smoke.R.G.Generalfilm.mkv
Format : Matroska
Format version : Version 4 / Version 2
File size : 1.20 GiB
Duration : 1 h 36 min
Overall bit rate : 1 786 kb/s
Movie name : The Nun.2018.WEB-DLRip-AVC.by.White Smoke.R.G.Generalfilm.mkv
Encoded date : UTC 2018-11-21 12:25:34
Writing application : mkvmerge v6.8.0 ('Theme for Great Cities') 64bit built on Mar 2 2014 21:34:26
Writing library : libebml v1.3.0 + libmatroska v1.4.1
Cover : Yes
Attachments : cover.png
Video
ID : 1
Format : AVC
Format/Info : Advanced Video Codec
Format profile : High@L4.1
Format settings, CABAC : Yes
Format settings, ReFrames : 10 frames
Codec ID : V_MPEG4/ISO/AVC
Duration : 1 h 36 min
Bit rate : 1 400 kb/s
Width : 1 024 pixels
Height : 430 pixels
Display aspect ratio : 2.40:1
Frame rate mode : Constant
Frame rate : 23.976 (24000/1001) FPS
Color space : YUV
Chroma subsampling : 4:2:0
Bit depth : 8 bits
Scan type : Progressive
Bits/(Pixel*Frame) : 0.133
Stream size : 943 MiB (77%)
Writing library : x264 core 148 r2638 7599210
Encoding settings : cabac=1 / ref=10 / deblock=1:-2:-1 / analyse=0x3:0x113 / me=umh / subme=11 / psy=1 / psy_rd=0.00:0.15 / mixed_ref=1 / me_range=32 / chroma_me=1 / trellis=2 / 8x8dct=1 / cqm=0 / deadzone=21,11 / fast_pskip=0 / chroma_qp_offset=-3 / threads=6 / lookahead_threads=1 / sliced_threads=0 / nr=0 / decimate=0 / interlaced=0 / bluray_compat=0 / constrained_intra=0 / bframes=10 / b_pyramid=2 / b_adapt=2 / b_bias=0 / direct=1 / weightb=1 / open_gop=0 / weightp=2 / keyint=240 / keyint_min=23 / scenecut=40 / intra_refresh=0 / rc_lookahead=40 / rc=2pass / mbtree=1 / bitrate=1400 / ratetol=1.0 / qcomp=0.65 / qpmin=0 / qpmax=69 / qpstep=4 / cplxblur=20.0 / qblur=0.5 / vbv_maxrate=50000 / vbv_bufsize=65500 / nal_hrd=none / filler=0 / ip_ratio=1.40 / aq=1:1.00
Language : English
Default : Yes
Forced : No
Audio
ID : 2
Format : AC-3
Format/Info : Audio Coding 3
Mode extension : CM (complete main)
Format settings, Endianness : Big
Codec ID : A_AC3
Duration : 1 h 36 min
Bit rate mode : Constant
Bit rate : 384 kb/s
Channel(s) : 6 channels
Channel positions : Front: L C R, Side: L R, LFE
Sampling rate : 48.0 kHz
Frame rate : 31.250 FPS (1536 spf)
Compression mode : Lossy
Stream size : 265 MiB (22%)
Title : iTunes | THE_NUN (2018) WEB-DL 1080p-KAZTORKA
Language : Russian
Default : Yes
Forced : Yes
Text #1
ID : 3
Format : UTF-8
Codec ID : S_TEXT/UTF8
Codec ID/Info : UTF-8 Plain Text
Title : Forced
Language : Russian
Default : Yes
Forced : Yes
Text #2
ID : 4
Format : UTF-8
Codec ID : S_TEXT/UTF8
Codec ID/Info : UTF-8 Plain Text
Title : Full
Language : Russian
Default : No
Forced : No
Menu
00:00:00.000 : en:1
00:08:40.000 : en:2
00:17:53.000 : en:3
00:29:15.000 : en:4
00:38:03.000 : en:5
00:48:47.000 : en:6
00:58:47.000 : en:7
01:07:56.000 : en:8
01:18:12.000 : en:9
01:24:16.000 : en:10
01:32:27.000 : en:11
Релиз от:
[Профиль] [ЛС]

Сергей

Пол: Мужской

Стаж: 2 месяца 26 дней

Сообщений: 1

Откуда: г.Нижний Тагил, Свердловская область

Создавать темы 26-Ноя-2018 03:35 (спустя 4 дня)

[Цитировать]

Thank You . Накнец-то я Вас нашел . А может я - дурак !?
[Профиль] [ЛС]

ValkiriaGF

Пол: Женский

Стаж: 3 месяца 3 дня

Сообщений: 18

Откуда: Северная Пальмира

Создавать темы 26-Ноя-2018 21:41 (спустя 18 часов)

[Цитировать]

Всё верно! Это мы! Новый сайт теперь у нас)
[Профиль] [ЛС]
Показать сообщения:    
Ответить на тему

Текущее время: 16-Фев 11:23

Часовой пояс: UTC + 3



Вы не можете начинать темы
Вы не можете отвечать на сообщения
Вы не можете редактировать свои сообщения
Вы не можете удалять свои сообщения
Вы не можете голосовать в опросах
Вы не можете прикреплять файлы к сообщениям
Вы не можете скачивать файлы