Discovery. Опасная работа / Hard to Kill [1-6 серии из 6] (2018) HDTVRip 720р от GeneralFilm

Ответить на тему
 
Автор Сообщение

Starik60 ®

Пол: Мужской

Стаж: 3 месяца 4 дня

Сообщений: 111

Откуда: Москва, Россия

Создавать темы 22-Ноя-2018 01:16

[Цитировать]

Опасная работа / Hard to Kill
Год выпуска: 2018
Жанр: Документальный, приключения, экстрим
Выпущено: США, Discovery Channel
Ведущий: Тим Кеннеди
О фильме: Тим Кеннеди родился и вырос в Техасе. С самых ранних лет его окружали трудяги-ковбои, лесорубы и разработчики нефтяных месторождений – трудолюбивые парни, занятые тяжелым и опасным трудом. Теперь Кеннеди, рейнджер армии США и бывший боец ММА, ездит по Соединенным Штатам и работает бок о бок с этими отважными людьми. Пожарные, летчики-испытатели, парашютисты, сварщики на ядерных объектах и укротители быков – в каждой серии Тим рискует жизнью, чтобы рассказать людям о невоспетых «обыкновенных» героях.

Качество: HDTVRip 720p
Видео: MPEG-4 AVC, ~ 4000 Кбит/с, 1280x720
Аудио: MP2, 2 ch, 384 Кбит/с
Продолжительность: 6 x ~ 00:44:00
Перевод: Профессиональный (двухголосый, закадровый)

Скриншоты



MediaInfo

General
Unique ID : 320163511678931831189980338144887083088 (0xF0DD3FDA44BB43172E7E6BBC36F69050)
Complete name : H:\Раздачи 4\Опасная работа 720p GeneralFilm\Опасная работа GeneralFilm.mkv
Format : Matroska
Format version : Version 2
File size : 1.35 GiB
Duration : 43 min 54 s
Overall bit rate mode : Constant
Overall bit rate : 4 390 kb/s
Writing application : Lavf54.63.104
Writing library : Lavf54.63.104
Video
ID : 1
Format : AVC
Format/Info : Advanced Video Codec
Format profile : High@L4.1
Format settings : CABAC / 3 Ref Frames
Format settings, CABAC : Yes
Format settings, ReFrames : 3 frames
Codec ID : V_MPEG4/ISO/AVC
Duration : 43 min 54 s
Bit rate mode : Constant
Bit rate : 4 000 kb/s
Width : 1 280 pixels
Height : 720 pixels
Display aspect ratio : 16:9
Frame rate mode : Constant
Frame rate : 50.000 FPS
Standard : PAL
Color space : YUV
Chroma subsampling : 4:2:0
Bit depth : 8 bits
Scan type : Progressive
Bits/(Pixel*Frame) : 0.087
Stream size : 1.20 GiB (89%)
Default : No
Forced : No
Color range : Limited
Color primaries : BT.709
Transfer characteristics : BT.709
Matrix coefficients : BT.709
Audio
ID : 2
Format : MPEG Audio
Format version : Version 1
Format profile : Layer 2
Codec ID : A_MPEG/L2
Codec ID/Hint : MP2
Duration : 43 min 54 s
Bit rate mode : Constant
Bit rate : 384 kb/s
Channel(s) : 2 channels
Sampling rate : 48.0 kHz
Compression mode : Lossy
Delay relative to video : 4 ms
Stream size : 121 MiB (9%)
Language : English
Default : Yes
Forced : No

Название серий

01. Летчик-испытатель.
02. Американская коррида.
03. Малая авиация.
04. Спасение из лавины.
05. Взрывотехник.
06. Промышленный рыболов.

Внимание! Раздача ведётся путём добавления новых серий!

Внимание! Раздача ведётся путём добавления новых серий; при каждом добавлении создfётся новый торрент. Чтобы начать докачку новой серии, пользователям необходимо сделать следующее: (1) остановить скачивание, (2) удалить старый торрент у себя из клиента (старые серии удалять не надо), (3) скачать новый торрент и запустить его у себя в клиенте вместо старого, при этом указать клиенту путь в старую папку куда и должно происходить скачивание новых серий.
Ваш клиент при этом должен произвести хеширование (проверку) старой папки (если не производит сам - помогите ему сделать это), и будет докачивать только те серии которых у вас ещё нет. Старые серии при этом не удаляются, а продолжают раздаваться!
Eсли вы уже удалили старые серии, то предотвратить повторную закачку старых серий можно, отжав галочку в соответсвующих местах при запуске нового торрента.
Благодарю за отличный постер ValkiriaGF
Релиз от:
[Профиль] [ЛС]
Показать сообщения:    
Ответить на тему

Текущее время: 16-Фев 21:37

Часовой пояс: UTC + 3



Вы не можете начинать темы
Вы не можете отвечать на сообщения
Вы не можете редактировать свои сообщения
Вы не можете удалять свои сообщения
Вы не можете голосовать в опросах
Вы не можете прикреплять файлы к сообщениям
Вы не можете скачивать файлы