Бомбардировка (Несгибаемый дух) / Air Strike (Da hong zha) (2018) BDRip 1080p

Reply to topic
 
Author Message

Monk ®

Gender: Male

Longevity: 11 months

Posts: 9115

Location: Казань

Post 22-Nov-2018 09:41

[Quote]

Бомбардировка (Несгибаемый дух) / Air Strike (Da hong zha) Год выпуска: 2018
Жанр: Боевик, драма, военный, история
Выпущено: Китай, Origin Films,Shanghai Film Group,China Film Group Corporation
Режиссер: Сяо Фэн
В ролях: Лю Е, Брюс Уиллис, Сын Хон Сон, Эдриан Броуди, Уильям Чан, Ева Хуан, Николас Тсе, Бинбин Фань, Ма Су, Вэй Фань
О фильме: Февраль 1938 года, Вторая японо-китайская война. После вынужденного переноса китайской столицы в Чунцин японское командование принимает решение - стереть город с лица земли. Японцы готовились к войне на Тихом океане и надеялись принудить правительство Чан Кайши к скорейшему выходу из войны. Тысячи тонн снарядов обрушиваются на мирные кварталы Чунцина.

Качество: BDRip 1080p
Видео: MPEG-4 AVC, 13 Мбит/с, 1920x808, 23.976 Кадр/с
Аудио: Русский (AC3, 2 ch, 192 Кбит/с), английский (AC3, 6 ch, 640 Кбит/с)
Продолжительность: 01:37:07
Перевод: Профессиональный многоголосый [HDRezka Studio]
Субтитры: Русские, английские

Скриншоты



MediaInfo

Общее
Уникальный идентификатор : 103986203857474814752203984176921235867 (0x4E3B03AE7CF206CDE6F6F6024DB0D19B)
Полное имя : F:\OlLanDGroup\Air.Strike.2018.BDRip(1080p).OlLanDGroup.mkv
Формат : Matroska
Версия формата : Version 4 / Version 2
Размер файла : 9,37 Гбайт
Продолжительность : 1 ч. 37 м.
Общий поток : 13,8 Мбит/сек
Название фильма : Air.Strike.2018 #TorpedoUK#
Дата кодирования : UTC 2019-01-26 04:30:34
Программа кодирования : mkvmerge v29.0.0 ('Like It Or Not') 64-bit
Библиотека кодирования : libebml v1.3.6 + libmatroska v1.4.9
Видео
Идентификатор : 1
Формат : AVC
Формат/Информация : Advanced Video Codec
Профиль формата : High@L4.1
Параметр CABAC формата : Да
Параметр ReFrames формата : 5 кадров
Идентификатор кодека : V_MPEG4/ISO/AVC
Продолжительность : 1 ч. 37 м.
Битрейт : 13,0 Мбит/сек
Ширина : 1920 пикселей
Высота : 808 пикселей
Соотношение сторон : 2,40:1
Режим частоты кадров : Постоянный
Частота кадров : 23,976 (24000/1001) кадра/сек
Цветовое пространство : YUV
Субдискретизация насыщенности : 4:2:0
Битовая глубина : 8 бит
Тип развёртки : Прогрессивная
Бит/(Пиксели*Кадры) : 0.350
Размер потока : 8,81 Гбайт (94%)
Библиотека кодирования : x264 core 142 r2431+42 c69a006 tMod [8-bit@all X86_64]
Настройки программы : cabac=1 / ref=5 / deblock=1:-3:-3 / analyse=0x3:0x133 / me=umh / subme=11 / psy=1 / fade_compensate=0.00 / psy_rd=1.05:1.05 / mixed_ref=1 / me_range=48 / chroma_me=1 / trellis=2 / 8x8dct=1 / cqm=0 / deadzone=21,11 / fast_pskip=0 / chroma_qp_offset=-4 / threads=16 / lookahead_threads=2 / sliced_threads=0 / nr=0 / decimate=0 / interlaced=0 / bluray_compat=0 / constrained_intra=0 / fgo=0 / bframes=8 / b_pyramid=2 / b_adapt=2 / b_bias=0 / direct=3 / weightb=1 / open_gop=0 / weightp=2 / keyint=240 / keyint_min=23 / scenecut=40 / intra_refresh=0 / rc_lookahead=240 / rc=2pass / mbtree=0 / bitrate=13000 / ratetol=1.0 / qcomp=0.80 / qpmin=0:0:0 / qpmax=69:69:69 / qpstep=4 / cplxblur=20.0 / qblur=0.5 / vbv_maxrate=40000 / vbv_bufsize=30000 / nal_hrd=none / filler=0 / ip_ratio=1.30 / pb_ratio=1.20 / aq=2:0.78 / aq-sensitivity=10.00 / aq-factor=1.00:1.00:1.00 / aq2=0 / aq3=0
Default : Да
Forced : Нет
Цветовой диапазон : Limited
Основные цвета : BT.709
Характеристики трансфера : BT.709
Коэффициенты матрицы : BT.709
Аудио #1
Идентификатор : 2
Формат : AC-3
Формат/Информация : Audio Coding 3
Расширение режима : CM (complete main)
Параметр Endianness формата : Big
Идентификатор кодека : A_AC3
Продолжительность : 1 ч. 37 м.
Вид битрейта : Постоянный
Битрейт : 192 Кбит/сек
Каналы : 2 канала
Расположение каналов : Front: L R
Частота : 48,0 КГц
Частота кадров : 31,250 кадров/сек (1536 spf)
Битовая глубина : 16 бит
Метод сжатия : С потерями
Размер потока : 133 Мбайт (1%)
Заголовок : MVO [HDRezka Studio]
Язык : Russian
Default : Да
Forced : Нет
Аудио #2
Идентификатор : 3
Формат : AC-3
Формат/Информация : Audio Coding 3
Расширение режима : CM (complete main)
Параметр Endianness формата : Big
Идентификатор кодека : A_AC3
Продолжительность : 1 ч. 37 м.
Вид битрейта : Постоянный
Битрейт : 640 Кбит/сек
Каналы : 6 каналов
Расположение каналов : Front: L C R, Side: L R, LFE
Частота : 48,0 КГц
Частота кадров : 31,250 кадров/сек (1536 spf)
Битовая глубина : 16 бит
Метод сжатия : С потерями
Размер потока : 445 Мбайт (5%)
Заголовок : [Original]
Язык : English
Default : Нет
Forced : Нет
Текст #1
Идентификатор : 4
Формат : UTF-8
Идентификатор кодека : S_TEXT/UTF8
Идентификатор кодека/Информация : UTF-8 Plain Text
Продолжительность : 1 ч. 26 м.
Битрейт : 51 бит/сек
Count of elements : 769
Размер потока : 32,7 Кбайт (0%)
Заголовок : Full
Язык : Russian
Default : Нет
Forced : Нет
Текст #2
Идентификатор : 5
Формат : UTF-8
Идентификатор кодека : S_TEXT/UTF8
Идентификатор кодека/Информация : UTF-8 Plain Text
Продолжительность : 1 ч. 26 м.
Битрейт : 40 бит/сек
Count of elements : 921
Размер потока : 25,8 Кбайт (0%)
Заголовок : Full
Язык : English
Default : Нет
Forced : Нет
Текст #3
Идентификатор : 6
Формат : UTF-8
Идентификатор кодека : S_TEXT/UTF8
Идентификатор кодека/Информация : UTF-8 Plain Text
Продолжительность : 1 ч. 26 м.
Битрейт : 45 бит/сек
Count of elements : 1083
Размер потока : 28,9 Кбайт (0%)
Заголовок : SDH
Язык : English
Default : Нет
Forced : Нет
Меню
00:00:00.000 : :00:00:00.000
00:06:14.541 : :00:06:14.541
00:15:26.259 : :00:15:26.259
00:23:19.064 : :00:23:19.064
00:30:58.690 : :00:30:58.690
00:39:48.595 : :00:39:48.595
00:47:51.368 : :00:47:51.368
00:58:01.728 : :00:58:01.728
01:05:52.615 : :01:05:52.615
01:13:33.826 : :01:13:33.826
01:23:18.660 : :01:23:18.660
01:28:46.905 : :01:28:46.905
[Profile] [PM]
Display posts:    
Reply to topic

Current time is: 14-Nov 10:25

All times are UTC + 3



You cannot post new topics in this forum
You cannot reply to topics in this forum
You cannot edit your posts in this forum
You cannot delete your posts in this forum
You cannot vote in polls in this forum
You cannot attach files in this forum
You cannot download files in this forum