Новый Comedy Club [15 сезон: 1-30 выпуски] (2019) WEBRip 720p от Files-x

Reply to topic
 
Author Message

bond74 ®

Gender: Male

Longevity: 1 year 2 months

Posts: 707

Post 23-Feb-2019 02:14

[Quote]

Новый Comedy Club Год выпуска: 2018
Жанр: ТВ-шоу, юмор
Выпущено: Россия, ТНТ
Ведущий: Гарик Мартиросян, Павел Воля, Тимур Батрутдинов, Александр Ревва, Гавриил Гордеев, Олег Верещагин (I), Дмитрий Сорокин, Зураб Матуа, Андрей Аверин, Алексей Лихницкий, Роман Юнусов, Антон Лирник, Андрей Молочный, Александр Незлобин, Дмитрий Хрусталёв, Виктор Васильев (III), Сергей Бессмертный, Игорь Меерсон, Семён Слепаков
О фильме: Невероятная энергетика, уютная атмосфера, гениальный юмор – все это слагаемые успеха самого успешного, модного, смешного и талантливого шоу молодых юмористов, которые никогда не придерживаются никаких правил и границ.
Качество: WEBRip 720p
Видео: MPEG-4 AVC, ~ 2 929 Кбит/с, 1280x720, 25 кадр/с
Аудио: AC3, 2 ch, 192 Кбит/с
Продолжительность: 30 х ~ 01:08:13
Перевод: Не требуется
Субтитры: нет

Скриншоты

MediaInfo

General
Unique ID : 225135608192956965871060535027693317026 (0xA95F8A7AD344943C87690929687CEBA2)
Complete name : H:\шоу\Comedy Club.S15.WEB-DL 720p. Files-x\Comedy Club.S15E01.WEB-DL 720p. Files-x.mkv
Format : Matroska
File size : 1.09 GiB
Duration : 48mn 47s
Overall bit rate : 3 184 Kbps
Encoded date : UTC 2019-02-22 22:56:43
Writing application : mkvmerge v7.8.0 ('River Man') 32bit built on Apr 3 2015 12:11:22
Writing library : libebml v1.3.1 + libmatroska v1.4.2
Video
ID : 1
Format : AVC
Format/Info : Advanced Video Codec
Format profile : High@L3.1
Format settings, CABAC : Yes
Format settings, ReFrames : 1 frame
Codec ID : V_MPEG4/ISO/AVC
Duration : 48mn 47s
Bit rate : 2 929 Kbps
Width : 1 280 pixels
Height : 720 pixels
Display aspect ratio : 16:9
Frame rate : 25.000 fps
Standard : Component
Color space : YUV
Chroma subsampling : 4:2:0
Bit depth : 8 bits
Scan type : Progressive
Bits/(Pixel*Frame) : 0.127
Stream size : 1 022 MiB (92%)
Audio
ID : 2
Format : AC-3
Format/Info : Audio Coding 3
Mode extension : CM (complete main)
Codec ID : A_AC3
Duration : 48mn 47s
Bit rate mode : Constant
Bit rate : 192 Kbps
Channel(s) : 2 channels
Channel positions : Front: L R
Sampling rate : 44.1 KHz
Bit depth : 16 bits
Compression mode : Lossy
Stream size : 67.0 MiB (6%)

Раздача ведётся путём добавления новых серий

Внимание! Раздача ведётся путём добавления новых серий; при каждом добавлении создаётся новый торрент.
Чтобы начать докачку новой серии, пользователям необходимо сделать следующее:
1. Остановить скачивание;
2. Удалить старый торрент у себя из клиента (старые серии удалять не надо);
3. Скачать новый торрент и запустить его у себя в клиенте вместо старого, при этом указать клиенту путь в старую папку куда и должно происходить скачивание новых серий. Ваш клиент при этом должен произвести хеширование (проверку) старой папки и будет докачивать только те серии, которых у вас ещё нет. Старые серии при этом не удаляются, а продолжают раздаваться! Eсли вы уже удалили старые серии, то предотвратить повторную закачку старых серий можно, отжав галочку в соответствующих местах при запуске нового торрента.
Релиз от:


Last edited by bond74 on 2020-01-01 16:57; edited 7 times in total
[Profile] [PM]

GSG31

Gender: Male

Longevity: 10 months 27 days

Posts: 2

Post 03-Dec-2019 18:13 (after 9 months 8 days)

[Quote]

Противнее ничего быть не может.
[Profile] [PM]
Display posts:    
Reply to topic

Current time is: 25-Jan 21:42

All times are UTC + 3



You cannot post new topics in this forum
You cannot reply to topics in this forum
You cannot edit your posts in this forum
You cannot delete your posts in this forum
You cannot vote in polls in this forum
You cannot attach files in this forum
You cannot download files in this forum