Другая сторона ветра / The Other Side of the Wind (2018) WEB-DLRip | HDrezka Studio

Reply to topic
 
Author Message

Monk ®

Gender: Male

Longevity: 1 year 10 months

Posts: 13050

Location: Казань

Post 22-Nov-2018 11:00

[Quote]

Другая сторона ветра / The Other Side of the Wind Год выпуска: 2018
Жанр: Комедия, драма
Выпущено: Франция, Иран, США, Royal Road Entertainment,Les Films de l'Astrophore,SACI
Режиссер: Орсон Уэллс
В ролях: Джон Хьюстон, Роберт Рэндом, Питер Богданович, Сьюзен Страсберг, Ойа Кодар, Джозеф МакБрайд, Лилли Палмер, Эдмонд О'Брайен, Мерседес МакКэмбридж, Кэмерон Митчелл
О фильме: После двух десятилетий в изгнании, Орсон Уэллс возвращается в Голливуд, чтобы начать работу над своим фильмом "Другая сторона ветра". Проходит десять лет съемок и монтажа, но Орсон не может закончить картину из-за сложных юридических, финансовых и политических потрясений. Через 40 лет стриминг-сервис Netflix берется доделать этот легендарный фильм.
Качество: WEB-DLRip
Видео: XviD, 1502 Кбит/с, 720x384
Аудио: AC3, 2 ch, 192 Кбит/с
Продолжительность: 02:02:27
Перевод: Профессиональный многоголосый [HDrezka Studio]

Скриншоты


MediaInfo

Формат : AVI
Формат/Информация : Audio Video Interleave
Размер файла : 1,46 Гбайт
Продолжительность : 2 ч. 2 м.
Общий поток : 1 704 Кбит/сек
Название фильма : Другая сторона ветра_2018_WEB-DLRip
Программа кодирования : VirtualDubMod 1.5.10.3 | www.virtualdub-fr.org || (build 2550/release)
Авторское право : порошков
Видео
Идентификатор : 0
Формат : MPEG-4 Visual
Профиль формата : Advanced Simple@L5
Настройки формата : BVOP1 / Custom Matrix
Параметр BVOP формата : 1
Параметр QPel формата : Нет
Параметр GMC формата : Без точки перехода
Параметр матрицы формата : Выборочная
Идентификатор кодека : XVID
Идентификатор кодека/Подсказка : XviD
Продолжительность : 2 ч. 2 м.
Битрейт : 1 502 Кбит/сек
Ширина : 720 пикселей
Высота : 384 пикселя
Соотношение сторон : 1,85:1
Частота кадров : 24,000 кадра/сек
Цветовое пространство : YUV
Субдискретизация насыщенности : 4:2:0
Битовая глубина : 8 бит
Тип развёртки : Прогрессивная
Метод сжатия : С потерями
Бит/(Пиксели*Кадры) : 0.226
Размер потока : 1,28 Гбайт (88%)
Библиотека кодирования : XviD 73
Аудио
Идентификатор : 1
Формат : AC-3
Формат/Информация : Audio Coding 3
Коммерческое название : Dolby Digital
Идентификатор кодека : 2000
Продолжительность : 2 ч. 2 м.
Вид битрейта : Постоянный
Битрейт : 192 Кбит/сек
Каналы : 2 канала
Channel layout : L R
Частота : 48,0 КГц
Частота кадров : 31,250 кадров/сек (1536 SPF)
Метод сжатия : С потерями
Размер потока : 168 Мбайт (11%)
Выравнивание : Разделение по промежуткам
Продолжительность промежутка : 42 мс. (1,00 видеокадр)
Время предзагрузки промежутка : 500 мс.
Service kind : Complete Main
[Profile] [PM]
Display posts:    
Reply to topic

Current time is: 24-Sep 19:47

All times are UTC + 3



You cannot post new topics in this forum
You cannot reply to topics in this forum
You cannot edit your posts in this forum
You cannot delete your posts in this forum
You cannot vote in polls in this forum
You cannot attach files in this forum
You cannot download files in this forum