Поиск / Searching (2018) BDRip AVC | Лицензия

Reply to topic
 
Author Message

Monk ®

Gender: Male

Longevity: 11 months 3 days

Posts: 9023

Location: Казань

Post 22-Nov-2018 11:42

[Quote]

Поиск / Searching Год выпуска: 2018
Жанр: Триллер, драма, детектив
Выпущено: США, Россия, Bazelevs Entertainment, Bazelevs Production
Режиссер: Аниш Чаганти
В ролях: Джон Чо, Сара Сон, Алекс Джейн Го, Меган Лью, Кайя Доун Лау, Мишель Ла, Джозеф Ли, Доминик Хоффман, Сильвия Минасян, Мелисса Дисней.
О фильме: Когда 16-летняя дочь Дэвида Кима пропадает без вести, местная полиция начинает расследование. На поиски выделяют детектива, но спустя 37 часов тот не находит ни единой зацепки. Тогда Дэвид решает заглянуть в ноутбук своей дочери. Через устройства, программы и сайты, которые люди ежедневно используют для общения, Дэвиду необходимо найти след своей дочери, прежде чем она исчезнет навсегда.

Качество: BDRip AVC
Видео: MPEG-4 AVC, 2413 Кбит/с, 1024x576
Аудио: Русский (AC3, 6 ch, 448 Кбит/с), английский (AC3, 6 ch, 448 Кбит/с)
Продолжительность: 01:42:22
Перевод: Дублированный [Лицензия]
Субтитры: Русские, английские

Скриншоты



MediaInfo

Общее
Уникальный идентификатор : 56273345744879197827849100646891332216 (0x2A55DA276D097CFFE84162F484AF2278)
Полное имя : F:\OlLanDGroup\Searching.2018.BDRip(AVC).OlLanDGroup.mkv
Формат : Matroska
Версия формата : Version 4 / Version 2
Размер файла : 2,37 Гбайт
Продолжительность : 1 ч. 42 м.
Общий поток : 3311 Кбит/сек
Название фильма : Searching.2018 #TorpedoUK#
Дата кодирования : UTC 2019-01-13 04:45:03
Программа кодирования : mkvmerge v29.0.0 ('Like It Or Not') 64-bit
Библиотека кодирования : libebml v1.3.6 + libmatroska v1.4.9
Видео
Идентификатор : 1
Формат : AVC
Формат/Информация : Advanced Video Codec
Профиль формата : High@L4.1
Параметр CABAC формата : Да
Параметр ReFrames формата : 10 кадров
Идентификатор кодека : V_MPEG4/ISO/AVC
Продолжительность : 1 ч. 42 м.
Битрейт : 2413 Кбит/сек
Ширина : 1024 пикселя
Высота : 576 пикселей
Соотношение сторон : 16:9
Режим частоты кадров : Постоянный
Частота кадров : 23,976 (24000/1001) кадра/сек
Цветовое пространство : YUV
Субдискретизация насыщенности : 4:2:0
Битовая глубина : 8 бит
Тип развёртки : Прогрессивная
Бит/(Пиксели*Кадры) : 0.171
Размер потока : 1,73 Гбайт (73%)
Библиотека кодирования : x264 core 146 r2538 121396c
Настройки программы : cabac=1 / ref=10 / deblock=1:-3:-3 / analyse=0x3:0x113 / me=umh / subme=11 / psy=1 / psy_rd=1.00:0.03 / mixed_ref=1 / me_range=48 / chroma_me=1 / trellis=2 / 8x8dct=1 / cqm=0 / deadzone=21,11 / fast_pskip=1 / chroma_qp_offset=-3 / threads=6 / lookahead_threads=1 / sliced_threads=0 / nr=0 / decimate=1 / interlaced=0 / bluray_compat=0 / constrained_intra=0 / bframes=11 / b_pyramid=2 / b_adapt=2 / b_bias=0 / direct=3 / weightb=1 / open_gop=0 / weightp=2 / keyint=240 / keyint_min=23 / scenecut=40 / intra_refresh=0 / rc_lookahead=40 / rc=2pass / mbtree=0 / bitrate=2413 / ratetol=1.0 / qcomp=0.60 / qpmin=0 / qpmax=69 / qpstep=4 / cplxblur=20.0 / qblur=0.5 / vbv_maxrate=50000 / vbv_bufsize=62500 / nal_hrd=none / filler=0 / ip_ratio=1.40 / pb_ratio=1.30 / aq=1:1.00
Язык : English
Default : Да
Forced : Нет
Аудио #1
Идентификатор : 2
Формат : AC-3
Формат/Информация : Audio Coding 3
Расширение режима : CM (complete main)
Параметр Endianness формата : Big
Идентификатор кодека : A_AC3
Продолжительность : 1 ч. 42 м.
Вид битрейта : Постоянный
Битрейт : 448 Кбит/сек
Каналы : 6 каналов
Расположение каналов : Front: L C R, Side: L R, LFE
Частота : 48,0 КГц
Частота кадров : 31,250 кадров/сек (1536 spf)
Битовая глубина : 16 бит
Метод сжатия : С потерями
Размер потока : 328 Мбайт (14%)
Заголовок : DUB [iTunes]
Язык : Russian
Default : Да
Forced : Нет
Аудио #2
Идентификатор : 3
Формат : AC-3
Формат/Информация : Audio Coding 3
Расширение режима : CM (complete main)
Параметр Endianness формата : Big
Идентификатор кодека : A_AC3
Продолжительность : 1 ч. 42 м.
Вид битрейта : Постоянный
Битрейт : 448 Кбит/сек
Каналы : 6 каналов
Расположение каналов : Front: L C R, Side: L R, LFE
Частота : 48,0 КГц
Частота кадров : 31,250 кадров/сек (1536 spf)
Битовая глубина : 16 бит
Метод сжатия : С потерями
Размер потока : 328 Мбайт (14%)
Заголовок : [Original]
Язык : English
Default : Нет
Forced : Нет
Текст #1
Идентификатор : 4
Формат : UTF-8
Идентификатор кодека : S_TEXT/UTF8
Идентификатор кодека/Информация : UTF-8 Plain Text
Продолжительность : 1 ч. 36 м.
Битрейт : 78 бит/сек
Count of elements : 984
Размер потока : 55,8 Кбайт (0%)
Заголовок : Full
Язык : Russian
Default : Нет
Forced : Нет
Текст #2
Идентификатор : 5
Формат : UTF-8
Идентификатор кодека : S_TEXT/UTF8
Идентификатор кодека/Информация : UTF-8 Plain Text
Продолжительность : 1 ч. 32 м.
Битрейт : 52 бит/сек
Count of elements : 1020
Размер потока : 35,9 Кбайт (0%)
Заголовок : Full
Язык : English
Default : Нет
Forced : Нет
Меню
00:00:00.000 : en:Chapter 01
00:06:25.385 : en:Chapter 02
00:12:41.635 : en:Chapter 03
00:20:13.545 : en:Chapter 04
00:23:12.849 : en:Chapter 05
00:31:01.651 : en:Chapter 06
00:35:49.647 : en:Chapter 07
00:39:39.460 : en:Chapter 08
00:47:27.845 : en:Chapter 09
00:53:31.708 : en:Chapter 10
00:59:16.928 : en:Chapter 11
01:05:29.216 : en:Chapter 12
01:13:07.257 : en:Chapter 13
01:21:14.619 : en:Chapter 14
01:26:07.203 : en:Chapter 15
01:34:32.792 : en:Chapter 16
[Profile] [PM]
Display posts:    
Reply to topic

Current time is: 18-Oct 05:30

All times are UTC + 3



You cannot post new topics in this forum
You cannot reply to topics in this forum
You cannot edit your posts in this forum
You cannot delete your posts in this forum
You cannot vote in polls in this forum
You cannot attach files in this forum
You cannot download files in this forum