Любовь по контракту [1-4 серия из 4] (2019) WEB-DLRip от Files-x

Reply to topic
 
Author Message

bond74 ®

Gender: Male

Longevity: 6 months 10 days

Posts: 446

Post 15-Mar-2019 22:39

[Quote]

Любовь по контракту Год выпуска: 2019
Жанр: Мелодрама
Выпущено: Россия, Эволюшн Пикчерс
Режиссер: Денис Елеонский
В ролях: Анна Арефьева, Андрей Носков, Полина Толстун, Антон Багров, Наталья Бурмистрова (II), Владимир Маслаков, Ирина Асаенок-Соловьева, Тата Хачатрян, Елизавета Шакира
О фильме: Мужчина и женщина из разных социальных слоев – успешный бизнесмен Егор и пережившая трагедию медсестра Аня – встречаются в трудных обстоятельствах. Оба несвободны: муж Ани Сергей после автомобильной аварии оказался в инвалидном кресле и замкнулся в себе, жена Егора – красавица Лилия, прима-балерина – отказывается подарить ему радость отцовства, чтобы не жертвовать фигурой и карьерой. Аня ради денег на операцию мужа соглашается выносить для Егора и Лилии малыша, но постепенно понимает, что Егор смотрит на нее не просто как на суррогатную мать своего ребенка, а как на женщину… Как быть, если оба связаны браком, но хотят простого семейного счастья в отличие от своих «вторых половинок»? Что делать, если отношения по контракту вдруг перерастут в настоящее чувство? И найдут ли они оба силы, чтобы кардинально изменить свою судьбу? ...
Качество: WEB-DLRip
Видео: XviD, ~ 1600 Кбит/с, 720x400, 25 кадр/с
Аудио: AC3, 2 ch, 192 Кбит/с
Продолжительность: 4 x ~ 00:50:23
Перевод: Не требуется
Субтитры: нет

Скриншоты

MediaInfo

General
Complete name : C:\Users\user\Downloads\Video\01. Любовь по контракту.(2019).WEB-DLRip.Files-x..avi
Format : AVI
Format/Info : Audio Video Interleave
File size : 649 MiB
Duration : 50mn 23s
Overall bit rate : 1 802 Kbps
Writing application : VirtualDubMod 1.5.10.3 | www.virtualdub-fr.org || (build 2550/release)
Writing library : VirtualDubMod build 2550/release
Video
ID : 0
Format : MPEG-4 Visual
Format profile : Advanced Simple@L5
Format settings, BVOP : 1
Format settings, QPel : No
Format settings, GMC : No warppoints
Format settings, Matrix : Custom
Codec ID : XVID
Codec ID/Hint : XviD
Duration : 50mn 23s
Bit rate : 1 600 Kbps
Width : 720 pixels
Height : 400 pixels
Display aspect ratio : 16:9
Frame rate : 25.000 fps
Color space : YUV
Chroma subsampling : 4:2:0
Bit depth : 8 bits
Scan type : Progressive
Compression mode : Lossy
Bits/(Pixel*Frame) : 0.222
Stream size : 577 MiB (89%)
Writing library : XviD 73
Audio
ID : 1
Format : AC-3
Format/Info : Audio Coding 3
Mode extension : CM (complete main)
Codec ID : 2000
Duration : 50mn 23s
Bit rate mode : Constant
Bit rate : 192 Kbps
Channel(s) : 2 channels
Channel positions : Front: L R
Sampling rate : 48.0 KHz
Bit depth : 16 bits
Compression mode : Lossy
Stream size : 69.2 MiB (11%)
Alignment : Split accross interleaves
Interleave, duration : 40 ms (1.00 video frame)
Interleave, preload duration : 500 ms
Релиз от:
[Profile] [PM]
Display posts:    
Reply to topic

Current time is: 25-May 15:10

All times are UTC + 3



You cannot post new topics in this forum
You cannot reply to topics in this forum
You cannot edit your posts in this forum
You cannot delete your posts in this forum
You cannot vote in polls in this forum
You cannot attach files in this forum
You cannot download files in this forum