В чужом краю [1-13 серия из 13] (2018) HDTVRip-AVC от Files-x

Reply to topic
 
Author Message

Серый1779 ®

Gender: Male

Longevity: 7 months 6 days

Posts: 472

Location: Украина

Post 17-Nov-2018 00:04

[Quote]

В чужом краю
Год выпуска: 2018
Жанр: Мелодрама
Выпущено: Россия, ООО "Кинокомпания Гамма"
Режиссер: Станислав Дремов
В ролях: Наталия Антонова, Ирина Розанова, Иван Оганесян, Юрий Батурин, Владимир Симонов, Екатерина Вуличенко, Анна Казючиц, Сергей Комаров (II), Ирина Рудоминская, Сергей Апрельский, Юлия Дробот, Вильгельмина Меттель, Даниил Коновалов, Полина Маршалл, Камилла Мухлисова
О фильме: Потеряв мужа и кров, Галина Кутепова приезжает с детьми и матерью в края, которые некогда были ей родными. Галина заново знакомится с отцом, которого не видела лет тридцать, ищет работу и смысл существования. Трудности, которые переносит героиня, закаляют ее, заставляют учиться принимать судьбоносные решения самостоятельно. Постепенно Галина обретает всё, о чём могла раньше только мечтать: новый дом, любимую работу и любимого мужчину. Однако внезапно к Галине возвращается муж, который тянет ее обратно – в старую жизнь...
Качество: HDTVRip (AVC)
Видео: MPEG-4 AVC, ~ 2000 Кбит/с, 1024x576, 25 кадр/с
Аудио: AC3, 2 ch, 192 Кбит/с
Продолжительность: 13 х ~ 00:44:00
Перевод: Не требуется
Субтитры: нет

Скриншоты


MediaInfo

Общее
Уникальный идентификатор : 234314060911950676844475383907765722923 (0xB0473F2326F6CC9DBC17C24D04801F2B)
Полное имя : F:\В чужом краю.(2018).HDTVRip.(AVC).Files-x\01.В чужом краю.(2018).HDTVRip.(AVC).by.Серый1779.Files-x.mkv
Формат : Matroska
Версия формата : Version 2
Размер файла : 620 Мбайт
Продолжительность : 39 м. 32 с.
Общий поток : 2194 Кбит/сек
Дата кодирования : UTC 2018-10-30 02:01:36
Программа кодирования : mkvmerge v7.8.0 ('River Man') 32bit built on Apr 3 2015 12:11:22
Библиотека кодирования : libebml v1.3.1 + libmatroska v1.4.2
Видео
Идентификатор : 1
Формат : AVC
Формат/Информация : Advanced Video Codec
Профиль формата : High@L4.1
Настройки формата : CABAC / 9 Ref Frames
Параметр CABAC формата : Да
Параметр RefFrames формата : 9 кадров
Идентификатор кодека : V_MPEG4/ISO/AVC
Продолжительность : 39 м. 32 с.
Битрейт : 2000 Кбит/сек
Ширина : 1024 пикселя
Высота : 576 пикселей
Соотношение сторон : 16:9
Режим частоты кадров : Постоянный
Частота кадров : 25,000 кадров/сек
Цветовое пространство : YUV
Субдискретизация насыщенности : 4:2:0
Битовая глубина : 8 бит
Тип развёртки : Прогрессивная
Бит/(Пиксели*Кадры) : 0.136
Размер потока : 554 Мбайт (89%)
Библиотека кодирования : x264 core 146 r2538 121396c
Настройки программы : cabac=1 / ref=9 / deblock=1:-2:-1 / analyse=0x3:0x133 / me=umh / subme=9 / psy=1 / psy_rd=1.00:0.15 / mixed_ref=1 / me_range=32 / chroma_me=1 / trellis=2 / 8x8dct=1 / cqm=0 / deadzone=21,11 / fast_pskip=0 / chroma_qp_offset=-3 / threads=18 / lookahead_threads=3 / sliced_threads=0 / nr=0 / decimate=1 / interlaced=0 / bluray_compat=0 / constrained_intra=0 / bframes=9 / b_pyramid=2 / b_adapt=2 / b_bias=0 / direct=1 / weightb=1 / open_gop=0 / weightp=2 / keyint=250 / keyint_min=25 / scenecut=40 / intra_refresh=0 / rc=2pass / mbtree=0 / bitrate=2000 / ratetol=1.0 / qcomp=0.60 / qpmin=0 / qpmax=69 / qpstep=4 / cplxblur=20.0 / qblur=0.5 / ip_ratio=1.40 / pb_ratio=1.30 / aq=2:1.00
Default : Да
Forced : Нет
Цветовой диапазон : Limited
Основные цвета : BT.709
Характеристики трансфера : BT.709
Коэффициенты матрицы : BT.709
Аудио
Идентификатор : 2
Формат : AC-3
Формат/Информация : Audio Coding 3
Параметр Endianness формата : Big
Идентификатор кодека : A_AC3
Продолжительность : 39 м. 32 с.
Вид битрейта : Постоянный
Битрейт : 192 Кбит/сек
Каналы : 2 канала
Расположение каналов : Front: L R
Частота : 44,1 КГц
Частота кадров : 28,711 кадров/сек (1536 SPF)
Битовая глубина : 16 бит
Метод сжатия : С потерями
Размер потока : 54,3 Мбайт (9%)
ServiceKind/String : Complete Main
Default : Да
Forced : Нет
Релиз от:


Last edited by Серый1779 on 2018-11-22 16:48; edited 2 times in total
[Profile] [PM]
Display posts:    
Reply to topic

Current time is: 18-Jun 21:02

All times are UTC + 3



You cannot post new topics in this forum
You cannot reply to topics in this forum
You cannot edit your posts in this forum
You cannot delete your posts in this forum
You cannot vote in polls in this forum
You cannot attach files in this forum
You cannot download files in this forum