Землетрясение (Разлом) / Skjelvet (The Quake) (2018) HDRip AVC | iTunes

Reply to topic
 
Author Message

Monk ®

Gender: Male

Longevity: 1 year

Posts: 9569

Location: Казань

Post 23-Nov-2018 10:45

[Quote]

Землетрясение / Skjelvet (The Quake) Год выпуска: 2018
Жанр: Триллер, драма, боевик
Выпущено: Норвегия, Fantefilm, Gimpville AS
Режиссер: Йон Андреас Андерсен
В ролях: Кристоффер Йонер, Эни Даль Торп, Хан Тран, Йонас Хофф Офтебро, Эдит Хогенруд-Сэнд, Катрин Торборг Йохансен, Равдип Син Бавджа, Тина Шей, Стиг Р. Амдам
О фильме: В 1904 году норвежская столица пострадала от землетрясения силой 5,4 балла по шкале Рихтера. Стихия привела к разрушениям в городе, но ни один человек не пострадал. В настоящее время геологические исследования показывают, что в Осло почти еженедельно происходят слабые подземные толчки, которые могут служить предвестниками ещё более сильного землетрясения.

Качество: HDRip AVC
Видео: MPEG-4 AVC, 1781 Кбит/с, 1024x428
Аудио: Русский (AC3, 6 ch, 384 Кбит/с)
Продолжительность: 01:47:45
Перевод: Дублированный [iTunes]
Субтитры: Английские

Скриншоты



MediaInfo

Общее
Уникальный идентификатор : 293277785248553195371707217595041864643 (0xDCA33F32702D8932AE1FB17DCE2C5BC3)
Полное имя : F:\OlLanDGroup\Skjelvet.2018.BDRip(AVC).OlLanDGroup.mkv
Формат : Matroska
Версия формата : Version 4 / Version 2
Размер файла : 1,63 Гбайт
Продолжительность : 1 ч. 47 м.
Общий поток : 2164 Кбит/сек
Название фильма : Skjelvet.2018 #TorpedoUK#
Дата кодирования : UTC 2019-01-03 14:18:00
Программа кодирования : mkvmerge v29.0.0 ('Like It Or Not') 64-bit
Библиотека кодирования : libebml v1.3.6 + libmatroska v1.4.9
Видео
Идентификатор : 1
Формат : AVC
Формат/Информация : Advanced Video Codec
Профиль формата : High@L4.1
Параметр CABAC формата : Да
Параметр ReFrames формата : 10 кадров
Идентификатор кодека : V_MPEG4/ISO/AVC
Продолжительность : 1 ч. 47 м.
Битрейт : 1781 Кбит/сек
Ширина : 1024 пикселя
Высота : 428 пикселей
Соотношение сторон : 2,40:1
Режим частоты кадров : Постоянный
Частота кадров : 24,000 кадра/сек
Цветовое пространство : YUV
Субдискретизация насыщенности : 4:2:0
Битовая глубина : 8 бит
Тип развёртки : Прогрессивная
Бит/(Пиксели*Кадры) : 0.169
Размер потока : 1,34 Гбайт (82%)
Библиотека кодирования : x264 core 146 r2538 121396c
Настройки программы : cabac=1 / ref=10 / deblock=1:-3:-2 / analyse=0x3:0x113 / me=umh / subme=11 / psy=1 / psy_rd=0.95:0.07 / mixed_ref=1 / me_range=48 / chroma_me=1 / trellis=2 / 8x8dct=1 / cqm=0 / deadzone=21,11 / fast_pskip=1 / chroma_qp_offset=-3 / threads=6 / lookahead_threads=1 / sliced_threads=0 / nr=0 / decimate=1 / interlaced=0 / bluray_compat=0 / constrained_intra=0 / bframes=11 / b_pyramid=2 / b_adapt=2 / b_bias=0 / direct=3 / weightb=1 / open_gop=0 / weightp=2 / keyint=240 / keyint_min=24 / scenecut=40 / intra_refresh=0 / rc_lookahead=40 / rc=2pass / mbtree=0 / bitrate=1781 / ratetol=1.0 / qcomp=0.60 / qpmin=0 / qpmax=69 / qpstep=4 / cplxblur=20.0 / qblur=0.5 / vbv_maxrate=50000 / vbv_bufsize=62500 / nal_hrd=none / filler=0 / ip_ratio=1.40 / pb_ratio=1.30 / aq=1:1.00
Язык : English
Default : Да
Forced : Нет
Аудио
Идентификатор : 2
Формат : AC-3
Формат/Информация : Audio Coding 3
Расширение режима : CM (complete main)
Параметр Endianness формата : Big
Идентификатор кодека : A_AC3
Продолжительность : 1 ч. 47 м.
Вид битрейта : Постоянный
Битрейт : 384 Кбит/сек
Каналы : 6 каналов
Расположение каналов : Front: L C R, Side: L R, LFE
Частота : 48,0 КГц
Частота кадров : 31,250 кадров/сек (1536 spf)
Битовая глубина : 16 бит
Метод сжатия : С потерями
Размер потока : 296 Мбайт (18%)
Заголовок : DUB [iTunes]
Язык : Russian
Default : Да
Forced : Нет
Текст
Идентификатор : 3
Формат : UTF-8
Идентификатор кодека : S_TEXT/UTF8
Идентификатор кодека/Информация : UTF-8 Plain Text
Продолжительность : 1 ч. 38 м.
Битрейт : 23 бит/сек
Count of elements : 496
Размер потока : 17,1 Кбайт (0%)
Заголовок : Full
Язык : English
Default : Нет
Forced : Нет
Меню
00:00:00.000 : en:00:00:00.000
00:10:00.000 : en:00:10:00.000
00:20:00.000 : en:00:20:00.000
00:30:00.000 : en:00:30:00.000
00:40:00.000 : en:00:40:00.000
00:50:00.000 : en:00:50:00.000
01:00:00.000 : en:01:00:00.000
01:10:00.000 : en:01:10:00.000
01:20:00.000 : en:01:20:00.000
01:30:00.000 : en:01:30:00.000
01:40:00.000 : en:01:40:00.000
[Profile] [PM]
Display posts:    
Reply to topic

Current time is: 07-Dec 15:50

All times are UTC + 3



You cannot post new topics in this forum
You cannot reply to topics in this forum
You cannot edit your posts in this forum
You cannot delete your posts in this forum
You cannot vote in polls in this forum
You cannot attach files in this forum
You cannot download files in this forum