Ментовские войны. Харьков [1-40 серии из 40] (2018) WEB-DLRip-AVC от Files-x

Reply to topic
 
Author Message

Серый1779 ®

Gender: Male

Longevity: 9 months 5 days

Posts: 517

Location: Украина

Post 17-Nov-2018 00:17

[Quote]

Ментовские войны. Харьков
Год выпуска: 2018
Жанр: Детектив, криминал, боевик, триллер
Выпущено: Украина, "1+1 Продакшн" по заказу телеканала 2+2
Режиссер: Валерий Рожко, Тарас Рыбальченко
В ролях: Артем Позняк, Богдан Юсипчук, Сергей Листунов, Танита Малкова, Анастасия Рула
О фильме: Это продолжение культовой саги про отважных, харизматичных и справедливых сотрудников уголовного розыска. Троица верных своему делу друзей – руководитель уголовного розыска Харьковского ГУВД Андрей Гордиенко, Богдан Харченко и Дмитрий Воронов каждый день принимают сложные вызовы криминального мира: запутанные убийства, вооруженные нападения, подлость в рядах силовиков и смертельно опасные задания. С холодным умом и отвагой они всегда пытаются быть объективными, но когда мишенью бандитов становятся близкие люди, героям все труднее избегать ошибок…Особенно тяжело им будут даваться дела, в которых замешаны «оборотни в погонах» - сотрудники структур, которые должны защищать граждан, а не наоборот. Новый сезон должен понравится вам еще больше за два предыдущих проекта, действия которых разворачивались в Одессе и Киеве. К тому же, вы сможете испытать свои силы в решении запутанных дел – вдруг, вы поймете, кто именно является преступником, раньше, чем главные герои сериала?
Качество: WEB-DLRip (AVC)
Видео: MPEG-4 AVC, ~ 1600 Кбит/с, 1024x576, 25 Кадр/с
Аудио: AC3, 2 ch, 192 Кбит/с
Продолжительность: 40 x ~ 00:47:00
Перевод: Не требуется
Субтитры: нет

Скриншоты


MediaInfo

Общее
Уникальный идентификатор : 218874068376365324256565573791490571881 (0xA4A99CBB572F21E3857BF2B35B90FE69)
Полное имя : F:\Ментовские войны. Харьков.(2018).WEB-DLRip.(AVC).Files-x\01.Ментовские войны.Харьков.(2018).WEB-DLRip.(AVC).by.Серый1779.Files-x.mkv
Формат : Matroska
Версия формата : Version 2
Размер файла : 593 Мбайт
Продолжительность : 46 м. 14 с.
Общий поток : 1793 Кбит/сек
Дата кодирования : UTC 2018-09-24 21:47:24
Программа кодирования : mkvmerge v7.8.0 ('River Man') 32bit built on Apr 3 2015 12:11:22
Библиотека кодирования : libebml v1.3.1 + libmatroska v1.4.2
Видео
Идентификатор : 1
Формат : AVC
Формат/Информация : Advanced Video Codec
Профиль формата : High@L4.1
Настройки формата : CABAC / 9 Ref Frames
Параметр CABAC формата : Да
Параметр RefFrames формата : 9 кадров
Идентификатор кодека : V_MPEG4/ISO/AVC
Продолжительность : 46 м. 14 с.
Битрейт : 1600 Кбит/сек
Ширина : 1024 пикселя
Высота : 576 пикселей
Соотношение сторон : 16:9
Режим частоты кадров : Постоянный
Частота кадров : 25,000 кадров/сек
Цветовое пространство : YUV
Субдискретизация насыщенности : 4:2:0
Битовая глубина : 8 бит
Тип развёртки : Прогрессивная
Бит/(Пиксели*Кадры) : 0.109
Размер потока : 518 Мбайт (87%)
Библиотека кодирования : x264 core 146 r2538 121396c
Настройки программы : cabac=1 / ref=9 / deblock=1:-2:-1 / analyse=0x3:0x133 / me=umh / subme=9 / psy=1 / psy_rd=1.00:0.15 / mixed_ref=1 / me_range=32 / chroma_me=1 / trellis=2 / 8x8dct=1 / cqm=0 / deadzone=21,11 / fast_pskip=0 / chroma_qp_offset=-3 / threads=18 / lookahead_threads=3 / sliced_threads=0 / nr=0 / decimate=1 / interlaced=0 / bluray_compat=0 / constrained_intra=0 / bframes=9 / b_pyramid=2 / b_adapt=2 / b_bias=0 / direct=1 / weightb=1 / open_gop=0 / weightp=2 / keyint=250 / keyint_min=25 / scenecut=40 / intra_refresh=0 / rc=2pass / mbtree=0 / bitrate=1600 / ratetol=1.0 / qcomp=0.60 / qpmin=0 / qpmax=69 / qpstep=4 / cplxblur=20.0 / qblur=0.5 / ip_ratio=1.40 / pb_ratio=1.30 / aq=2:1.00
Default : Да
Forced : Нет
Цветовой диапазон : Limited
Основные цвета : BT.709
Характеристики трансфера : BT.709
Коэффициенты матрицы : BT.709
Аудио
Идентификатор : 2
Формат : AC-3
Формат/Информация : Audio Coding 3
Параметр Endianness формата : Big
Идентификатор кодека : A_AC3
Продолжительность : 46 м. 14 с.
Вид битрейта : Постоянный
Битрейт : 192 Кбит/сек
Каналы : 2 канала
Расположение каналов : Front: L R
Частота : 48,0 КГц
Частота кадров : 31,250 кадров/сек (1536 SPF)
Битовая глубина : 16 бит
Метод сжатия : С потерями
Размер потока : 63,5 Мбайт (11%)
ServiceKind/String : Complete Main
Default : Да
Forced : Нет

Раздача ведётся путём добавления новых серий

Внимание! Раздача ведётся путём добавления новых серий; при каждом добавлении создаётся новый торрент.
Чтобы начать докачку новой серии, пользователям необходимо сделать следующее:
1. Остановить скачивание;
2. Удалить старый торрент у себя из клиента (старые серии удалять не надо);
3. Скачать новый торрент и запустить его у себя в клиенте вместо старого, при этом указать клиенту путь в старую папку куда и должно происходить скачивание новых серий. Ваш клиент при этом должен произвести хеширование (проверку) старой папки и будет докачивать только те серии, которых у вас ещё нет. Старые серии при этом не удаляются, а продолжают раздаваться! Eсли вы уже удалили старые серии, то предотвратить повторную закачку старых серий можно, отжав галочку в соответствующих местах при запуске нового торрента.
Релиз от:


Last edited by Серый1779 on 2018-11-22 17:00; edited 7 times in total
[Profile] [PM]
Display posts:    
Reply to topic

Current time is: 17-Aug 21:24

All times are UTC + 3



You cannot post new topics in this forum
You cannot reply to topics in this forum
You cannot edit your posts in this forum
You cannot delete your posts in this forum
You cannot vote in polls in this forum
You cannot attach files in this forum
You cannot download files in this forum