Кин / Kin (2018) BDRip AVC | iTunes

Reply to topic
 
Author Message

Monk ®

Gender: Male

Longevity: 6 months 8 days

Posts: 6383

Location: Казань

Post 23-Nov-2018 11:18

[Quote]

Кин / Kin Год выпуска: 2018
Жанр: Фантастика, боевик
Выпущено: США, 21 Laps Entertainment, Lionsgate, No Trace Camping
Режиссер: Джонатан Бэйкер, Джош Бэйкер
В ролях: Майлс Труитт, Джек Рейнор, Дэннис Куэйд, Зои Кравиц, Джеймс Франко, Кэрри Кун, Йен Мэтьюз, Гэвин Фокс, Стефан Гарно, Лукас Пенар
О фильме: Обнаружив инопланетное оружие, об истинной мощи которого можно только догадываться, обычный школьник оказывается в эпицентре крупных проблем: охоту на него и его брата открывает армия пришельцев, спецслужбы и гангстеры. Он не выбирал эту судьбу, но теперь только от него зависит - спасет загадочный артефакт наш мир или погубит...

Качество: BDRip AVC
Видео: MPEG-4 AVC, 1824 Кбит/с, 1024x428
Аудио: Русский (AC3, 6 ch, 384 Кбит/с), английский (AC3, 6 ch, 448 Кбит/c)
Продолжительность: 01:42:54
Перевод: Дублированный [iTunes]
Субтитры: Английские

Скриншоты



MediaInfo

Общее
Уникальный идентификатор : 270673027409973039847141982294623791907 (0xCBA1BA96BEA3F2F1DFB3560B1EAE2B23)
Полное имя : F:\OlLanDGroup\Kin.2018.BDRip(AVC).OlLanDGroup.mkv
Формат : Matroska
Версия формата : Version 4 / Version 2
Размер файла : 1,90 Гбайт
Продолжительность : 1 ч. 42 м.
Общий поток : 2648 Кбит/сек
Название фильма : Kin.2018 #TorpedoUK#
Дата кодирования : UTC 2018-11-12 01:02:03
Программа кодирования : mkvmerge v25.0.0 ('Prog Noir') 64-bit
Библиотека кодирования : libebml v1.3.6 + libmatroska v1.4.9
Видео
Идентификатор : 1
Формат : AVC
Формат/Информация : Advanced Video Codec
Профиль формата : High@L4.1
Параметр CABAC формата : Да
Параметр ReFrames формата : 10 кадров
Идентификатор кодека : V_MPEG4/ISO/AVC
Продолжительность : 1 ч. 42 м.
Битрейт : 1824 Кбит/сек
Ширина : 1024 пикселя
Высота : 428 пикселей
Соотношение сторон : 2,40:1
Режим частоты кадров : Постоянный
Частота кадров : 23,976 (24000/1001) кадра/сек
Цветовое пространство : YUV
Субдискретизация насыщенности : 4:2:0
Битовая глубина : 8 бит
Тип развёртки : Прогрессивная
Бит/(Пиксели*Кадры) : 0.174
Размер потока : 1,30 Гбайт (69%)
Библиотека кодирования : x264 core 146 r2538 121396c
Настройки программы : cabac=1 / ref=10 / deblock=1:-3:-3 / analyse=0x3:0x113 / me=umh / subme=11 / psy=1 / psy_rd=0.98:0.04 / mixed_ref=1 / me_range=48 / chroma_me=1 / trellis=2 / 8x8dct=1 / cqm=0 / deadzone=21,11 / fast_pskip=1 / chroma_qp_offset=-3 / threads=6 / lookahead_threads=1 / sliced_threads=0 / nr=0 / decimate=1 / interlaced=0 / bluray_compat=0 / constrained_intra=0 / bframes=11 / b_pyramid=2 / b_adapt=2 / b_bias=0 / direct=3 / weightb=1 / open_gop=0 / weightp=2 / keyint=240 / keyint_min=23 / scenecut=40 / intra_refresh=0 / rc_lookahead=40 / rc=2pass / mbtree=0 / bitrate=1824 / ratetol=1.0 / qcomp=0.60 / qpmin=0 / qpmax=69 / qpstep=4 / cplxblur=20.0 / qblur=0.5 / vbv_maxrate=50000 / vbv_bufsize=62500 / nal_hrd=none / filler=0 / ip_ratio=1.40 / pb_ratio=1.30 / aq=1:1.00
Язык : English
Default : Да
Forced : Нет
Аудио #1
Идентификатор : 2
Формат : AC-3
Формат/Информация : Audio Coding 3
Расширение режима : CM (complete main)
Параметр Endianness формата : Big
Идентификатор кодека : A_AC3
Продолжительность : 1 ч. 42 м.
Вид битрейта : Постоянный
Битрейт : 384 Кбит/сек
Каналы : 6 каналов
Расположение каналов : Front: L C R, Side: L R, LFE
Частота : 48,0 КГц
Частота кадров : 31,250 кадров/сек (1536 spf)
Битовая глубина : 16 бит
Метод сжатия : С потерями
Размер потока : 282 Мбайт (14%)
Заголовок : DUB [iTunes]
Язык : Russian
Default : Да
Forced : Нет
Аудио #2
Идентификатор : 3
Формат : AC-3
Формат/Информация : Audio Coding 3
Расширение режима : CM (complete main)
Параметр Endianness формата : Big
Идентификатор кодека : A_AC3
Продолжительность : 1 ч. 42 м.
Вид битрейта : Постоянный
Битрейт : 448 Кбит/сек
Каналы : 6 каналов
Расположение каналов : Front: L C R, Side: L R, LFE
Частота : 48,0 КГц
Частота кадров : 31,250 кадров/сек (1536 spf)
Битовая глубина : 16 бит
Метод сжатия : С потерями
Размер потока : 330 Мбайт (17%)
Заголовок : [Original]
Язык : English
Default : Нет
Forced : Нет
Текст #1
Идентификатор : 4
Формат : UTF-8
Идентификатор кодека : S_TEXT/UTF8
Идентификатор кодека/Информация : UTF-8 Plain Text
Продолжительность : 1 ч. 34 м.
Битрейт : 40 бит/сек
Count of elements : 1027
Размер потока : 28,3 Кбайт (0%)
Заголовок : Full
Язык : English
Default : Нет
Forced : Нет
Текст #2
Идентификатор : 5
Формат : UTF-8
Идентификатор кодека : S_TEXT/UTF8
Идентификатор кодека/Информация : UTF-8 Plain Text
Продолжительность : 1 ч. 35 м.
Битрейт : 48 бит/сек
Count of elements : 1292
Размер потока : 34,3 Кбайт (0%)
Заголовок : SDH
Язык : English
Default : Нет
Forced : Нет
Меню
00:00:00.000 : en:00:00:00.000
00:07:23.735 : en:00:07:23.735
00:12:34.712 : en:00:12:34.712
00:20:44.451 : en:00:20:44.451
00:27:27.813 : en:00:27:27.813
00:31:57.123 : en:00:31:57.123
00:36:39.781 : en:00:36:39.781
00:41:57.849 : en:00:41:57.849
00:50:09.548 : en:00:50:09.548
00:56:57.497 : en:00:56:57.497
01:05:01.356 : en:01:05:01.356
01:08:01.369 : en:01:08:01.369
01:13:58.601 : en:01:13:58.601
01:17:52.209 : en:01:17:52.209
01:25:58.737 : en:01:25:58.737
01:34:28.955 : en:01:34:28.955
[Profile] [PM]
Display posts:    
Reply to topic

Current time is: 23-May 08:50

All times are UTC + 3



You cannot post new topics in this forum
You cannot reply to topics in this forum
You cannot edit your posts in this forum
You cannot delete your posts in this forum
You cannot vote in polls in this forum
You cannot attach files in this forum
You cannot download files in this forum