Роковое SMS [1-2 серии из 2] (2018) WEB-DLRip от GeneralFilm

Ответить на тему
 
Автор Сообщение

vsobbol ®

Пол: Мужской

Стаж: 4 месяца 4 дня

Сообщений: 139

Откуда: Донецк

Создавать темы 23-Ноя-2018 21:52

[Цитировать]

Роковое SMS
Год выпуска: 2018
Жанр: Детектив, криминальный фильм
Выпущено: Россия, ООО "АВК-Продакшн", Аквилон Медиа
Режиссер: Арман Геворгян
В ролях: Эльвира Болгова, Николай Иванов (II), Илья Соколовский, Ольга Филиппова, Никита Тарасов, Евгений Воловенко, Екатерина Симаходская, Анна Казючиц
О фильме: Красавец и плейбой Андрей когда-то был влюблён в Ольгу, но теперь они – лучшие друзья. Вот только её мужу Никите в это трудно поверить. Очередная сцена ревности переполняет чашу терпения Ольги, и она решает принять приглашение Андрея отдохнуть за границей. В аэропорту, ожидая друга, она получает sms от мужа: "Срочно бери такси и приезжай в наше кафе. Всё объясню потом, дело жизни и смерти". Ольга колеблется, но решает поверить мужу и уезжает из аэропорта. В кафе Никита говорит ей, что Андрея нашли мёртвым в его квартире и полиция ищет её как подозреваемую в убийстве...
Качество: WEB-DLRip
Видео: XviD build 73, 720x400 (16:9), 25.000 fps, ~ 1500 Kbps (~ 0.210 bit/pixel)
Аудио: 48.0 kHz, AC3, 2/0 ch, 192 kbps
Продолжительность: 2 x ~ 00:45:00
Перевод: Не требуется
Cубтитры: нет

Скриншоты

MediaInfo

General
Complete name : D:RazdachiRokovoe.SMS.2018.XviD.WEB-DLRip.GeneralFilmRokovoe.SMS.e01.avi
Format : AVI
Format/Info : Audio Video Interleave
File size : 557 MiB
Duration : 45 min 45 s
Overall bit rate : 1 702 kb/s
Writing application : VirtualDubMod 1.5.10.3 | www.virtualdub-fr.org || (build 2550/release)
Writing library : VirtualDubMod build 2550/release
Video
ID : 0
Format : MPEG-4 Visual
Format profile : Advanced Simple@L5
Format settings, BVOP : 1
Format settings, QPel : No
Format settings, GMC : No warppoints
Format settings, Matrix : Custom
Codec ID : XVID
Codec ID/Hint : XviD
Duration : 45 min 45 s
Bit rate : 1 500 kb/s
Width : 720 pixels
Height : 400 pixels
Display aspect ratio : 16:9
Frame rate : 25.000 FPS
Color space : YUV
Chroma subsampling : 4:2:0
Bit depth : 8 bits
Scan type : Progressive
Compression mode : Lossy
Bits/(Pixel*Frame) : 0.208
Stream size : 491 MiB (88%)
Writing library : XviD 73
Audio
ID : 1
Format : AC-3
Format/Info : Audio Coding 3
Format settings, Endianness : Big
Codec ID : 2000
Duration : 45 min 45 s
Bit rate mode : Constant
Bit rate : 192 kb/s
Channel(s) : 1 channel
Channel positions : Front: C
Sampling rate : 48.0 kHz
Frame rate : 31.250 FPS (1536 SPF)
Bit depth : 16 bits
Compression mode : Lossy
Stream size : 62.8 MiB (11%)
Alignment : Split accross interleaves
Interleave, duration : 40 ms (1.00 video frame)
Interleave, preload duratio : 500 ms
Service kind : Complete Main
Релиз от:
[Профиль] [ЛС]
Показать сообщения:    
Ответить на тему

Текущее время: 20-Мар 13:18

Часовой пояс: UTC + 3



Вы не можете начинать темы
Вы не можете отвечать на сообщения
Вы не можете редактировать свои сообщения
Вы не можете удалять свои сообщения
Вы не можете голосовать в опросах
Вы не можете прикреплять файлы к сообщениям
Вы не можете скачивать файлы