Лучше, чем люди [1-13 серии из 16] (2018) WEBRip от GeneralFilm

Тема закрыта
 
Автор Сообщение

vsobbol ®

Пол: Мужской

Стаж: 3 месяца 1 день

Сообщений: 108

Откуда: Донецк

Создавать темы 24-Ноя-2018 02:47

[Цитировать]

Лучше, чем люди
Год выпуска: 2018
Жанр: Фантастика, драма
Выпущено: Россия, Yellow, Black and White, «Спутник Восток Продакшн»
Режиссер: Андрей Джунковский
В ролях: Паулина Андреева, Александр Устюгов, Кирилл Кяро, Ольга Ломоносова, Александр Кузнецов (IX), Ирина Таранник, Виталия Корниенко, Михаил Кремер, Татьяна Ермилова, Денис Бургазлиев, Сергей Тэсслер, Виктория Корлякова, Вера Панфилова, Сергей Сосновский, Ксения Кубасова, Мария Луговая, Олег Морозов, Владимир Лукьянчиков, Алевтина Тукан, Павел Усачев, Сергей Губанов
О фильме: Действие происходит в недалеком будущем, где роботы-андроиды стали обыденным явлением и вошли во все сферы жизни людей – они помогают им воспитывать детей, работают персональными водителями и охранниками. Для большинства людей боты – просто бездушные машины для рутинной работы, но они тоже способны на эмоции. Главная героиня – супербот Ариса – пытается понять, что значит быть человеком. Как ребенок, она познаёт мир и постепенно открывает для себя такие чувства, как: забота, преданность и любовь. При этом, ее абсолютное и наивное следование по этому пути и делает ее существом лучшим, чем сами люди.

Качество: WEBRip
Видео: XviD build 73, 720x400 (16:9), 25.000 fps, ~ 1300 Kbps (~ 0.190 bit/pixel)
Аудио: 48.0 kHz, AC3, 2/0 ch, 192 kbps
Продолжительность: 13 x ~ 00:52:00
Перевод: Не требуется
Cубтитры: нет

Скриншоты

MediaInfo

General
Complete name : D:RazdachiLuchshe.Chem.Ljudi.2018.XviD.WEBRip.GeneralFilmLuchshe.Chem.Ljudi.e01.avi
Format : AVI
Format/Info : Audio Video Interleave
File size : 557 MiB
Duration : 49 min 37 s
Overall bit rate : 1 569 kb/s
Writing application : VirtualDubMod 1.5.10.3 | www.virtualdub-fr.org || (build 2550/release)
Writing library : VirtualDubMod build 2550/release
Video
ID : 0
Format : MPEG-4 Visual
Format profile : Advanced Simple@L5
Format settings, BVOP : 1
Format settings, QPel : No
Format settings, GMC : No warppoints
Format settings, Matrix : Custom
Codec ID : XVID
Codec ID/Hint : XviD
Duration : 49 min 37 s
Bit rate : 1 367 kb/s
Width : 720 pixels
Height : 400 pixels
Display aspect ratio : 16:9
Frame rate : 25.000 FPS
Color space : YUV
Chroma subsampling : 4:2:0
Bit depth : 8 bits
Scan type : Progressive
Compression mode : Lossy
Bits/(Pixel*Frame) : 0.190
Stream size : 485 MiB (87%)
Writing library : XviD 73
Audio
ID : 1
Format : AC-3
Format/Info : Audio Coding 3
Format settings, Endianness : Big
Codec ID : 2000
Duration : 49 min 37 s
Bit rate mode : Constant
Bit rate : 192 kb/s
Channel(s) : 2 channels
Channel positions : Front: L R
Sampling rate : 48.0 kHz
Frame rate : 31.250 FPS (1536 SPF)
Bit depth : 16 bits
Compression mode : Lossy
Delay relative to video : 8 ms
Stream size : 68.2 MiB (12%)
Alignment : Split accross interleaves
Interleave, duration : 40 ms (1.00 video frame)
Interleave, preload duratio : 500 ms
Service kind : Complete Main
В серии 5-8 присутствует логотип-реклама онлайн кинотеатра
Релиз от:
[Профиль] [ЛС]
Показать сообщения:    
Тема закрыта

Текущее время: 17-Фев 19:59

Часовой пояс: UTC + 3



Вы не можете начинать темы
Вы не можете отвечать на сообщения
Вы не можете редактировать свои сообщения
Вы не можете удалять свои сообщения
Вы не можете голосовать в опросах
Вы не можете прикреплять файлы к сообщениям
Вы не можете скачивать файлы