Только не они (2018) WEB-DLRip от GeneralFilm | iTunes

Reply to topic
 
Author Message

vsobbol ®

Gender: Male

Longevity: 11 months 7 days

Posts: 309

Location: Донецк

Post 24-Nov-2018 04:20

[Quote]

Только не они
Год выпуска: 2018
Жанр: Комедия
Выпущено: Россия, Art Pictures Studio, BB Production & Promotion
Режиссер: Александр Бойков
В ролях: Дарья Храмцова, Полина Максимова, Юлия Хлынина, Данил Стеклов, Денис Бузин, Сергей Дубров, Сергей Якимович, Владимир Стеклов, Александр Семчев, Сергей Белоголовцев.
О фильме: Когда мир в опасности, обычно на помощь приходят супергерои. Все знают, что они храбрее, умнее и сильнее нас. Но что, если вселенная решит развлечься, и миссия по спасению человечества ляжет на слабенькие плечи двадцатилетних тусовщиков и пофигистов? Математик, Мажор, Рокер, Стерва, Псих, Блондинка и Неудачница просыпаются после бурной вечеринки с интригующим названием «Конец света» и обнаруживают опустевший полуразрушенный город. На них открыта охота, а на горизонте маячит уже самый настоящий апокалипсис. И остановить его мог бы кто угодно... но только не они!

Качество: WEB-DLRip
Видео: XviD build 73, 688x288 (2.40:1), 24.000 fps, 940 Kbps (0.198 bit/pixel)
Аудио: 48.0 kHz, MP3, 2/0 ch, 128 kbps
Продолжительность: 01:36:43
Перевод: Не требуется
Cубтитры: нет

Скриншоты

MediaInfo

General
Complete name : D:RazdachiToljko.Ne.Oni.2018.XviD.WEB-DLRip.745Mb.GeneralFilm.avi
Format : AVI
Format/Info : Audio Video Interleave
File size : 745 MiB
Duration : 1 h 36 min
Overall bit rate : 1 077 kb/s
Writing application : VirtualDubMod 1.5.10.3 | www.virtualdub-fr.org || (build 2550/release)
Writing library : VirtualDubMod build 2550/release
Video
ID : 0
Format : MPEG-4 Visual
Format profile : Advanced Simple@L5
Format settings, BVOP : 1
Format settings, QPel : No
Format settings, GMC : No warppoints
Format settings, Matrix : Custom
Codec ID : XVID
Codec ID/Hint : XviD
Duration : 1 h 36 min
Bit rate : 940 kb/s
Width : 688 pixels
Height : 288 pixels
Display aspect ratio : 2.40:1
Frame rate : 24.000 FPS
Color space : YUV
Chroma subsampling : 4:2:0
Bit depth : 8 bits
Scan type : Progressive
Compression mode : Lossy
Bits/(Pixel*Frame) : 0.198
Stream size : 650 MiB (87%)
Writing library : XviD 73
Audio
ID : 1
Format : MPEG Audio
Format version : Version 1
Format profile : Layer 3
Codec ID : 55
Codec ID/Hint : MP3
Duration : 1 h 36 min
Bit rate mode : Constant
Bit rate : 128 kb/s
Channel(s) : 2 channels
Sampling rate : 48.0 kHz
Compression mode : Lossy
Stream size : 88.5 MiB (12%)
Alignment : Aligned on interleaves
Interleave, duration : 42 ms (1.00 video frame)
Interleave, preload duratio : 504 ms
Writing library : LAME3.99r
Encoding settings : -m s -V 4 -q 2 -lowpass 17 -b 128
Релиз от:
[Profile] [PM]
Display posts:    
Reply to topic

Current time is: 23-Oct 22:12

All times are UTC + 3



You cannot post new topics in this forum
You cannot reply to topics in this forum
You cannot edit your posts in this forum
You cannot delete your posts in this forum
You cannot vote in polls in this forum
You cannot attach files in this forum
You cannot download files in this forum