Лео и Тиг [1-26 серии из 26] (2016-2018) HDTVRip от Generalfilm

Ответить на тему
 
Автор Сообщение

admin ®

Пол: Мужской

Стаж: 4 месяца 15 дней

Сообщений: 13

Создавать темы 17-Ноя-2018 09:53

[Цитировать]

Лео и Тиг
Год выпуска: 2016-2018
Жанр: Мультфильм, комедия, семейный, полнометражный
Выпущено: Россия, Паровоз
Режиссер: Александр Люткевич
В ролях: Агния Кузнецова, Александра Урсуляк, Дмитрий Назаров, Диамид Виноградов, Елена Шульман
О фильме: В лесах Приморского края России родился леопард по имени Лео. Он очень редкого вида, из сородичей у него осталась только мама. А из сверстников — тигренок по имени Тиг. Неразлучные друзья, ни дня не могут прожить без приключений. Им все интересно, они встречаются с необычными явлениями природы, разгадывают загадки, устраивают состязания, помогают тем, кому нужна их помощь. Неутомимые исследователи открывают для себя и зрителей удивительный мир Приморского края, его уникальную природу, которая в глазах ребенка приобретает магические способности, оживать и помогать всем, кто верит в чудеса. Ведь мир, в котором все мы живем, это наш дом...
Качество: HDTVRip
Видео: XviD, 1700 Кбит/с, 720x400
Аудио: AC3, 2 ch, 192 Кбит/с
Продолжительность: 26 x ~ 00:11:00
Перевод: Не требуется
Cубтитры: нет

Скриншоты


MediaInfo

General
Complete name Leo.i.Tig.XviD.2016.2017.HDTVRip.Generalfilm\001.avi
Format : AVI
Format/Info : Audio Video Interleave
File size : 150 MiB
Duration : 11mn 0s
Overall bit rate : 1 904 Kbps
Director : WhiteQueen
Writing application : VirtualDubMod 1.5.10.3 | www.virtualdub-fr.org || (build 2550/release)
Video
ID : 0
Format : MPEG-4 Visual
Format profile : Advanced Simple@L5
Format settings, BVOP : 2
Format settings, QPel : No
Format settings, GMC : No warppoints
Format settings, Matrix : Custom
Codec ID : XVID
Codec ID/Hint : XviD
Duration : 11mn 0s
Bit rate : 1 702 Kbps
Width : 720 pixels
Height : 400 pixels
Display aspect ratio : 16:9
Frame rate : 25.000 fps
Color space : YUV
Chroma subsampling : 4:2:0
Bit depth : 8 bits
Scan type : Progressive
Compression mode : Lossy
Bits/(Pixel*Frame) : 0.236
Stream size : 134 MiB (89%)
Writing library : XviD 65
Audio
ID : 1
Format : AC-3
Format/Info : Audio Coding 3
Mode extension : CM (complete main)
Format settings, Endianness : Big
Codec ID : 2000
Duration : 11mn 0s
Bit rate mode : Constant
Bit rate : 192 Kbps
Channel(s) : 2 channels
Channel positions : Front: L R
Sampling rate : 48.0 KHz
Bit depth : 16 bits
Compression mode : Lossy
Stream size : 15.1 MiB (10%)
Alignment : Split accross interleaves
Interleave, duration : 40 ms (1.00 video frame)
Interleave, preload duration : 500 ms

Список серий

01. Шкура солнца
02. Таинственная пещера
03. Таёжная сказка
04. Осень в тайге
05. Серебряная река
06. Красный олень
07. Самое ценное
08. Высший пилотаж
09. Орлиная скала
10. Старый друг
11. Пробуждение дракона
12. История героя
13. До свидания, Феофан
14. Подарок духа тайги
15. Маленькая вьюжка
16. Маленький подвиг
17. Долой пернатых
18. Подкидыш
19. Пропавшее вдохновение
20. Морской бой
21. Плохая примета
22. Солнечный народ
23. Тайна сгоревшего леса
24. Таёжный патруль
25. Влюблённый Куба
26. Чемпионы Нового Года
Релиз от:
[Профиль] [ЛС]
Показать сообщения:    
Ответить на тему

Текущее время: 25-Мар 13:53

Часовой пояс: UTC + 3



Вы не можете начинать темы
Вы не можете отвечать на сообщения
Вы не можете редактировать свои сообщения
Вы не можете удалять свои сообщения
Вы не можете голосовать в опросах
Вы не можете прикреплять файлы к сообщениям
Вы не можете скачивать файлы