Эксперимент «Офис» 2 (Погром) / Mayhem (2017) BDRip 720p | iTunes

Reply to topic
 
Author Message

Monk ®

Gender: Male

Longevity: 11 months 5 days

Posts: 9032

Location: Казань

Post 24-Nov-2018 09:24

[Quote]

Эксперимент «Офис» 2 (Погром) / Mayhem Год выпуска: 2017
Жанр: Ужасы, боевик, комедия
Выпущено: США, Circle of Confusion, Royal Viking Entertainment
Режиссер: Джо Линч
В ролях: Стивен Юн, Самара Уивинг, Стивен Брэнд, Кэролайн Чикези, Керри Фокс, Даллас Робертс, Марк Фрост, Клер Левин, Андре Эриксен, Никола Кент
О фильме: На человечество обрушился вирус ID7. Заражённые не могут себя контролировать. На 8 часов они оказываются во власти инстинктов: ярости, похоти, страха. Дерек упорно работал, чтобы добиться высокого положения в крупной фирме. Босс его подставил и уволил с позором. Именно в этот момент в офис попадает вирус ID7. Прекрасный шанс оторваться и восстановить справедливость.

Качество: BDRip 720p
Видео: MPEG-4 AVC, 6830 Кбит/с, 1280x536
Аудио: Русский (AC3, 6 ch, 384 Кбит/с), английский (АС3, 6 ch, 640 Кбит/с)
Продолжительность: 01:27:34
Перевод: Профессиональный многоголосый [iTunes]
Субтитры: Английские

Скриншоты


MediaInfo

General
Unique ID : 216650411576353938462641366356947865126 (0xA2FD59FCAE9A024897297735427B8E26)
Complete name : Mayhem.2017.BDRip.720p.mkv
Format : Matroska
Format version : Version 4 / Version 2
File size : 4.80 GiB
Duration : 1 h 27 min
Overall bit rate mode : Variable
Overall bit rate : 7 850 kb/s
Movie name : Mayhem.2017.BDRip.720p
Encoded date : UTC 2018-01-15 22:54:20
Writing application : mkvmerge v17.0.0 ('Be Ur Friend') 64-bit
Writing library : libebml v1.3.5 + libmatroska v1.4.8
Video
ID : 1
Format : AVC
Format/Info : Advanced Video Codec
Format profile : High@L4.1
Format settings, CABAC : Yes
Format settings, RefFrames : 11 frames
Codec ID : V_MPEG4/ISO/AVC
Duration : 1 h 27 min
Bit rate mode : Variable
Bit rate : 6 830 kb/s
Maximum bit rate : 62.5 Mb/s
Width : 1 280 pixels
Height : 536 pixels
Display aspect ratio : 2.40:1
Frame rate mode : Constant
Frame rate : 23.976 (24000/1001) FPS
Color space : YUV
Chroma subsampling : 4:2:0
Bit depth : 8 bits
Scan type : Progressive
Bits/(Pixel*Frame) : 0.415
Stream size : 4.17 GiB (87%)
Writing library : x264 core 142 r2431+42 c69a006 tMod [8-bit@all X86_64]
Encoding settings : cabac=1 / ref=12 / deblock=1:-3:-3 / analyse=0x3:0x133 / me=umh / subme=11 / psy=1 / fade_compensate=0.00 / psy_rd=1.05:1.05 / mixed_ref=1 / me_range=48 / chroma_me=1 / trellis=2 / 8x8dct=1 / cqm=0 / deadzone=21,11 / fast_pskip=0 / chroma_qp_offset=-4 / threads=16 / lookahead_threads=2 / sliced_threads=0 / nr=0 / decimate=0 / interlaced=0 / bluray_compat=0 / constrained_intra=0 / fgo=0 / bframes=8 / b_pyramid=1 / b_adapt=2 / b_bias=0 / direct=3 / weightb=1 / open_gop=0 / weightp=2 / keyint=240 / keyint_min=23 / scenecut=40 / intra_refresh=0 / rc_lookahead=100 / rc=2pass / mbtree=0 / bitrate=6830 / ratetol=1.0 / qcomp=0.70 / qpmin=0:0:0 / qpmax=69:69:69 / qpstep=4 / cplxblur=20.0 / qblur=0.5 / vbv_maxrate=62500 / vbv_bufsize=78125 / nal_hrd=vbr / filler=0 / ip_ratio=1.30 / pb_ratio=1.20 / aq=2:0.80 / aq-sensitivity=10.00 / aq-factor=1.00:1.00:1.00 / aq2=0 / aq3=0
Language : English
Default : Yes
Forced : No
Color range : Limited
Color primaries : BT.709
Transfer characteristics : BT.709
Matrix coefficients : BT.709
Audio #1
ID : 2
Format : AC-3
Format/Info : Audio Coding 3
Format settings, Endianness : Big
Codec ID : A_AC3
Duration : 1 h 27 min
Bit rate mode : Constant
Bit rate : 384 kb/s
Channel(s) : 6 channels
Channel positions : Front: L C R, Side: L R, LFE
Sampling rate : 48.0 kHz
Frame rate : 31.250 FPS (1536 SPF)
Bit depth : 16 bits
Compression mode : Lossy
Stream size : 241 MiB (5%)
Title : MVO | iTunes
Language : Russian
Service kind : Complete Main
Default : Yes
Forced : No
Audio #2
ID : 3
Format : AC-3
Format/Info : Audio Coding 3
Format settings, Endianness : Big
Codec ID : A_AC3
Duration : 1 h 27 min
Bit rate mode : Constant
Bit rate : 640 kb/s
Channel(s) : 6 channels
Channel positions : Front: L C R, Side: L R, LFE
Sampling rate : 48.0 kHz
Frame rate : 31.250 FPS (1536 SPF)
Bit depth : 16 bits
Compression mode : Lossy
Stream size : 401 MiB (8%)
Language : English
Service kind : Complete Main
Default : No
Forced : No
Text
ID : 4
Format : UTF-8
Codec ID : S_TEXT/UTF8
Codec ID/Info : UTF-8 Plain Text
Duration : 1 h 22 min
Bit rate : 67 b/s
Count of elements : 1307
Stream size : 40.8 KiB (0%)
Language : English
Default : No
Forced : No
Menu
00:00:00.000 : en:Chapter 01
00:10:06.188 : en:Chapter 02
00:19:52.566 : en:Chapter 03
00:34:24.896 : en:Chapter 04
00:39:10.056 : en:Chapter 05
00:56:05.278 : en:Chapter 06
01:04:28.573 : en:Chapter 07
01:13:04.838 : en:Chapter 08
01:18:09.601 : en:Chapter 09
01:23:36.428 : en:Chapter 10
01:27:34.123 : en:Chapter 11
[Profile] [PM]
Display posts:    
Reply to topic

Current time is: 19-Oct 16:30

All times are UTC + 3



You cannot post new topics in this forum
You cannot reply to topics in this forum
You cannot edit your posts in this forum
You cannot delete your posts in this forum
You cannot vote in polls in this forum
You cannot attach files in this forum
You cannot download files in this forum