Discovery. Битвы роботов / Battle Bots [1-3 сезоны: 37 серий из 37] (2015-2018) HDTVRip от GeneralFilm

Ответить на тему
 
Автор Сообщение

Starik60 ®

Пол: Мужской

Стаж: 3 месяца 4 дня

Сообщений: 111

Откуда: Москва, Россия

Создавать темы 17-Ноя-2018 14:25

[Цитировать]

Битвы роботов / Battle Bots
Год выпуска: 2015-2018
Жанр: Документальный, приключения, реалити-шоу
Выпущено: США, Discovery Channel HD
Комментаторы: Василий Уткин, Владимир Стогниенко, Антон Комолов, Евгений Рыбов
О фильме: В новом сезоне зрители увидят еще больше роботов – количество поединков в каждом эпизоде вырастет до пяти. Как и прежде, схватка будет длиться 3 минуты, в течение которых соперники должны вывести друг друга из строя: когда нокаутированный робот перестает двигаться, судья начинает обратный отсчет до объявления победы. На исходе трех минут на арене появляются ловушки – пилы, молоты и дробилки, которые добавляют поединку остроты и непредсказуемости и делают его еще более зрелищным. Помимо традиционных боев один на один в каждом эпизоде будут проводиться матчи-реванши участников прошлых сезонов, парные состязания и масштабные схватки сразу 12 роботов. Лучшие из лучших будут продвигаться вверх по турнирной таблице, а в финал проекта выйдут 16 самых стойких участников. В заключительном эпизоде они сразятся в грандиозной битве, победитель которой будет награжден главным призом — гигантской гайкой, легендарным символом состязаний.

Качество: HDTVRip
Видео: XviD, ~ 1600 Кбит/с, 720x400
Аудио: АС3, 2 ch, 192 Кбит/c
Продолжительность: 37 x ~ 00:44:00
Перевод: Профессиональный (многоголосый, закадровый), профессиональный (двухголосый, закадровый)

Скриншоты



MediaInfo

General
Complete name : H:\Раздачи 3\Битвы роботов S01-03 GeneralFilm\3 сезон\01 Битвы роботов GeneralFilm.avi
Format : AVI
Format/Info : Audio Video Interleave
File size : 565 MiB
Duration : 43 min 49 s
Overall bit rate : 1 802 kb/s
Writing application : VirtualDubMod 1.5.10.3 | www.virtualdub-fr.org || (build 2550/release)
Writing library : VirtualDubMod build 2550/release
Video
ID : 0
Format : MPEG-4 Visual
Format profile : Advanced Simple@L5
Format settings : BVOP1 / Custom Matrix
Format settings, BVOP : 1
Format settings, QPel : No
Format settings, GMC : No warppoints
Format settings, Matrix : Custom
Codec ID : XVID
Codec ID/Hint : XviD
Duration : 43 min 49 s
Bit rate : 1 600 kb/s
Width : 720 pixels
Height : 400 pixels
Display aspect ratio : 16:9
Frame rate : 25.000 FPS
Color space : YUV
Chroma subsampling : 4:2:0
Bit depth : 8 bits
Scan type : Progressive
Compression mode : Lossy
Bits/(Pixel*Frame) : 0.222
Stream size : 502 MiB (89%)
Writing library : XviD 73
Audio
ID : 1
Format : AC-3
Format/Info : Audio Coding 3
Commercial name : Dolby Digital
Codec ID : 2000
Duration : 43 min 49 s
Bit rate mode : Constant
Bit rate : 192 kb/s
Channel(s) : 2 channels
Channel layout : L R
Sampling rate : 48.0 kHz
Frame rate : 31.250 FPS (1536 SPF)
Bit depth : 16 bits
Compression mode : Lossy
Stream size : 60.2 MiB (11%)
Alignment : Split accross interleaves
Interleave, duration : 40 ms (1.00 video frame)
Interleave, preload duratio : 500 ms
Service kind : Complete Main
Благодарю за отличный постер ValkiriaGF
Релиз от:
[Профиль] [ЛС]
Показать сообщения:    
Ответить на тему

Текущее время: 16-Фев 21:29

Часовой пояс: UTC + 3



Вы не можете начинать темы
Вы не можете отвечать на сообщения
Вы не можете редактировать свои сообщения
Вы не можете удалять свои сообщения
Вы не можете голосовать в опросах
Вы не можете прикреплять файлы к сообщениям
Вы не можете скачивать файлы