Апгрейд / Upgrade (2018) BDRip 1080p | iTunes

Ответить на тему
 
Автор Сообщение

Monk ®

Пол: Мужской

Стаж: 3 месяца 1 день

Сообщений: 3233

Откуда: Казань

Создавать темы 24-Ноя-2018 09:58

[Цитировать]

Апгрейд / Upgrade Год выпуска: 2018
Жанр: Фантастика, боевик, триллер, детектив
Выпущено: Австралия, Blumhouse Productions, Goalpost Pictures
Режиссер: Ли Уоннелл
В ролях: Логан Маршалл-Грин, Ричард Анастасиос, Роско Кэмпбелл, Ричард Коуторн, Линда Кроппер, Стив Даниелсен, Майкл М. Фостер, Бетти Гэбриел, Рена Галлахер, Харрисон Гилбертсон
О фильме: В ближайшем будущем разнообразные технологии участвуют во всех аспектах человеческой жизни. Но в этом технологичном мире Грей — один из немногих людей, кто любит работать руками. Он восстанавливает и чинит старые автомобили. Однажды, возвращаясь от клиента, Грей с женой попадают в аварию, а после — в руки банды отморозков, в результате чего женщина погибает, а Грей оказывается парализованным ниже шеи. Тот самый богатый клиент предлагает несчастному поставить экспериментальный имплант Stem, который может полностью восстановить подвижность.

Качество: BDRip 1080p
Видео: MPEG-4 AVC, 13700 Кбит/c, 1920x804
Аудио: Русский (AC3, 6 ch, 384 Кбит/с), английский (AC3, 6 ch, 640 Кбит/с)
Продолжительность: 01:39:54
Перевод: Дублированный [iTunes]
Субтитры: Русские, английские

Скриншоты



MediaInfo

General
Unique ID : 215006712154130753013754402028248929133 (0xA1C0C959418A607015CB38467650936D)
Complete name : F:\Upgrade.2018.bdriP.108Op.werecut.PROD.mkv
Format : Matroska
Format version : Version 4
File size : 10.3 GiB
Duration : 1 h 39 min
Overall bit rate : 14.7 Mb/s
Movie name : Upgrade 2018 OT werecut PROD.
Encoded date : UTC 2018-12-31 23:39:27
Writing application : mkvmerge v24.0.0 ('Beyond The Pale') 64-bit
Writing library : libebml v1.3.6 + libmatroska v1.4.9
Video
ID : 1
Format : AVC
Format/Info : Advanced Video Codec
Format profile : High@L4.1
Format settings : CABAC / 5 Ref Frames
Format settings, CABAC : Yes
Format settings, ReFrames : 5 frames
Codec ID : V_MPEG4/ISO/AVC
Duration : 1 h 39 min
Bit rate : 13.7 Mb/s
Width : 1 920 pixels
Height : 804 pixels
Display aspect ratio : 2.40:1
Frame rate mode : Constant
Frame rate : 23.976 (24000/1001) FPS
Color space : YUV
Chroma subsampling : 4:2:0
Bit depth : 8 bits
Scan type : Progressive
Bits/(Pixel*Frame) : 0.369
Stream size : 9.53 GiB (93%)
Title : playHD
Writing library : x264 core 155 r2867+82 a249126 t_mod_Custom_2 [8-bit@all X86_64]
Encoding settings : cabac=1 / ref=5 / deblock=1:-3:-3 / analyse=0x3:0x133 / me=umh / subme=10 / psy=1 / fade_compensate=0.00 / psy_rd=1.00:0.00 / mixed_ref=1 / me_range=32 / chroma_me=1 / trellis=2 / 8x8dct=1 / cqm=0 / deadzone=21,11 / fast_pskip=0 / chroma_qp_offset=-2 / threads=24 / lookahead_threads=4 / sliced_threads=0 / nr=0 / decimate=0 / interlaced=0 / bluray_compat=0 / constrained_intra=0 / fgo=0 / bframes=9 / b_pyramid=2 / b_adapt=2 / b_bias=0 / direct=3 / weightb=1 / open_gop=0 / weightp=2 / keyint=250 / keyint_min=23 / scenecut=40 / intra_refresh=0 / rc_lookahead=60 / rc=crf / mbtree=0 / crf=16.0000 / qcomp=0.60 / qpmin=0:0:0 / qpmax=69:69:69 / qpstep=4 / vbv_maxrate=62500 / vbv_bufsize=78125 / crf_max=0.0 / nal_hrd=none / filler=0 / ip_ratio=1.40 / pb_ratio=1.30 / aq=3:0.80 / aq-sensitivity=10.00 / aq-factor=1.00:1.00:1.00 / aq2=0 / aq3=0 / zones=4717,4859,crf=13/14339,14361,crf=13.8/16729,16838,crf=13.8/81615,81707,crf=13.2/95814,95862,crf=13.5/131824,131904,crf=13.5/133972,134347,crf=14/134459,134537,crf=14/134633,134715,crf=14/134780,134854,crf=14
Language : English
Default : Yes
Forced : No
Audio #1
ID : 2
Format : AC-3
Format/Info : Audio Coding 3
Commercial name : Dolby Digital
Codec ID : A_AC3
Duration : 1 h 39 min
Bit rate mode : Constant
Bit rate : 384 kb/s
Channel(s) : 6 channels
Channel layout : L R C LFE Ls Rs
Sampling rate : 48.0 kHz
Frame rate : 31.250 FPS (1536 SPF)
Bit depth : 16 bits
Compression mode : Lossy
Stream size : 274 MiB (3%)
Title : DUB iTunes
Language : Russian
Service kind : Complete Main
Default : Yes
Forced : No
Audio #2
ID : 3
Format : AC-3
Format/Info : Audio Coding 3
Commercial name : Dolby Digital
Codec ID : A_AC3
Duration : 1 h 39 min
Bit rate mode : Constant
Bit rate : 640 kb/s
Channel(s) : 6 channels
Channel layout : L R C LFE Ls Rs
Sampling rate : 48.0 kHz
Frame rate : 31.250 FPS (1536 SPF)
Bit depth : 16 bits
Compression mode : Lossy
Stream size : 457 MiB (4%)
Language : English
Service kind : Complete Main
Default : No
Forced : No
Text #1
ID : 4
Format : UTF-8
Codec ID : S_TEXT/UTF8
Codec ID/Info : UTF-8 Plain Text
Duration : 1 h 32 min
Bit rate : 88 b/s
Count of elements : 1290
Stream size : 59.6 KiB (0%)
Language : Russian
Default : No
Forced : No
Text #2
ID : 5
Format : UTF-8
Codec ID : S_TEXT/UTF8
Codec ID/Info : UTF-8 Plain Text
Duration : 1 h 32 min
Bit rate : 51 b/s
Count of elements : 1066
Stream size : 35.1 KiB (0%)
Language : English
Default : No
Forced : No
Menu
00:00:00.000 : en:00:00:00.000
00:05:38.296 : en:00:05:38.296
00:09:04.919 : en:00:09:04.919
00:15:26.759 : en:00:15:26.759
00:18:42.705 : en:00:18:42.705
00:21:43.636 : en:00:21:43.636
00:28:37.382 : en:00:28:37.382
00:34:42.622 : en:00:34:42.622
00:41:17.058 : en:00:41:17.058
00:47:55.623 : en:00:47:55.623
00:51:14.530 : en:00:51:14.530
00:56:58.457 : en:00:56:58.457
01:01:34.566 : en:01:01:34.566
01:05:22.168 : en:01:05:22.168
01:09:10.938 : en:01:09:10.938
01:16:13.194 : en:01:16:13.194
01:20:17.104 : en:01:20:17.104
01:25:41.928 : en:01:25:41.928
01:31:45.250 : en:01:31:45.250
01:33:57.632 : en:01:33:57.632
[Профиль] [ЛС]
Показать сообщения:    
Ответить на тему

Текущее время: 16-Фев 11:22

Часовой пояс: UTC + 3



Вы не можете начинать темы
Вы не можете отвечать на сообщения
Вы не можете редактировать свои сообщения
Вы не можете удалять свои сообщения
Вы не можете голосовать в опросах
Вы не можете прикреплять файлы к сообщениям
Вы не можете скачивать файлы