Как долго продлится наша любовь? / Chao shi kong tong ju (2018) HDRip

Reply to topic
 
Author Message

Monk ®

Gender: Male

Longevity: 1 year

Posts: 9115

Location: Казань

Post 24-Nov-2018 10:49

[Quote]

Как долго продлится наша любовь? / Chao shi kong tong ju Год выпуска: 2018
Жанр: Мелодрама, комедия, фантастика
Выпущено: Китай, Youth Enlight Picture
Режиссер: Су Лунь
В ролях: Лэй Цзяинь, Тун Лия, Чжэн Сюй
О фильме: В одном доме происходит нечто странное. По непонятным причинам там образуется пространственно-временное искривление, и вот уже женщина из 2018 года и мужчина из 1999 года вынуждены делить общую жилплощадь. Понятное дело, в коммуналке жить непросто, но герои умудряются влюбиться друг в друга, не подозревая, что за нарушением привычного хода вещей стоит знакомый одного из них.

Качество: HDRip
Видео: XviD, 1430 Кбит/с, 720x320
Аудио: Русский (AC3, 2 ch, 192 Кбит/с), китайский (AC3, 6 ch, 448 Кбит/с)
Продолжительность: 01:40:37
Перевод: Любительский двухголосый [HighHopes]
Субтитры: Русские, английские

Скриншоты



MediaInfo

Общее
Полное имя : C:\Kak.dolgo.prodlitsya.nasha.lyubov.2018.HDRip\Kak.dolgo.prodlitsya.nasha.lyubov.2018.HDRip.avi
Формат : AVI
Формат/Информация : Audio Video Interleave
Размер файла : 1,46 Гбайт
Продолжительность : 1 ч. 40 м.
Общий поток : 2084 Кбит/сек
Название фильма : Как долго продлится наша любовь? / Chao shi kong tong ju (2018) HDRip
Режиссёр : Су Лунь / Su Lun
Жанр : Мелодрама, комедия, фантасти
Программа кодирования : VirtualDubMod 1.5.10.2 (build 2542/release)
Формат оригинала/Имя : Художественный фильм
Авторское право : Youth Enlight Picture
Примечание : vitolinform
Видео
Идентификатор : 0
Формат : MPEG-4 Visual
Профиль формата : Advanced Simple@L5
Настройки формата : BVOP2
Параметр BVOP формата : 2
Параметр QPel формата : Нет
Параметр GMC формата : Без точки перехода
Параметр матрицы формата : Default (MPEG)
Идентификатор кодека : XVID
Идентификатор кодека/Подсказка : XviD
Продолжительность : 1 ч. 40 м.
Битрейт : 1430 Кбит/сек
Ширина : 720 пикселей
Высота : 320 пикселей
Соотношение сторон : 2,25:1
Частота кадров : 24,000 кадра/сек
Цветовое пространство : YUV
Субдискретизация насыщенности : 4:2:0
Битовая глубина : 8 бит
Тип развёртки : Прогрессивная
Метод сжатия : С потерями
Бит/(Пиксели*Кадры) : 0.259
Размер потока : 1,00 Гбайт (69%)
Библиотека кодирования : XviD 67
Аудио #1
Идентификатор : 1
Формат : AC-3
Формат/Информация : Audio Coding 3
Идентификатор кодека : 2000
Продолжительность : 1 ч. 40 м.
Вид битрейта : Постоянный
Битрейт : 192 Кбит/сек
Каналы : 2 канала
Расположение каналов : Front: L R
Частота : 48,0 КГц
Частота кадров : 31,250 кадров/сек (1536 SPF)
Битовая глубина : 16 бит
Метод сжатия : С потерями
Размер потока : 138 Мбайт (9%)
Выравнивание : Разделение по промежуткам
Продолжительность промежутка : 42 мс. (1,00 видеокадр)
Время предзагрузки промежутка : 500 мс.
Заголовок : Russian (DVO HighHopes)
ServiceKind/String : Complete Main
Аудио #2
Идентификатор : 2
Формат : AC-3
Формат/Информация : Audio Coding 3
Идентификатор кодека : 2000
Продолжительность : 1 ч. 40 м.
Вид битрейта : Постоянный
Битрейт : 448 Кбит/сек
Каналы : 6 каналов
Расположение каналов : Front: L C R, Side: L R, LFE
Частота : 48,0 КГц
Частота кадров : 31,250 кадров/сек (1536 SPF)
Битовая глубина : 16 бит
Метод сжатия : С потерями
Размер потока : 322 Мбайт (21%)
Выравнивание : Разделение по промежуткам
Продолжительность промежутка : 42 мс. (1,00 видеокадр)
Время предзагрузки промежутка : 500 мс.
Заголовок : Chinese
ServiceKind/String : Complete Main
[Profile] [PM]
Display posts:    
Reply to topic

Current time is: 23-Nov 05:49

All times are UTC + 3



You cannot post new topics in this forum
You cannot reply to topics in this forum
You cannot edit your posts in this forum
You cannot delete your posts in this forum
You cannot vote in polls in this forum
You cannot attach files in this forum
You cannot download files in this forum