Рим / Rome [1-2 сезоны: 1-22 серии из 22] (2005-2007) HDRip от tahiy

Reply to topic
 
Author Message

tahiy ®

Gender: Male

Longevity: 11 months 23 days

Posts: 4

Post 24-Nov-2018 11:01

[Quote]

Рим / Rome
Год выпуска: 2005-2007
Жанр: Исторический, драма, Древний Рим, гладиаторы, боевик, костюмированный
Выпущено: США, HD Vision Studios, British Broadcasting Corporation (BBC), Home Box Office (HBO)
Режиссер: Майкл Эптед, Аллен Коултер, Алан Пол, Стив Шилл, Тимоти Ван Паттен, Алан Тейлор, Джон Мэйбери
В ролях: Кевин МакКидд, Рэй Стивенсон, Полли Уокер, Керри Кондон, Киаран Хайндс, Джеймс Пьюрфой, Йен МакНайс, Линдси Дункан, Лидия Бионди, Тобайас Мензис, Дэвид Бамбер, Макс Пиркис, Ли Бордман
О фильме: "Рим" - совместный проект BBC и американской телекомпании HBO. Многосерийная кинолента переносит зрителя в середину I века до нашей эры - в период заката Римской республики. Проконсул и император галльских легионов Гай Юлий Цезарь возвращается в Рим после почти девятилетней войны, полностью подавив восстание галлов. Объявленный вне закона, он вступает в конфронтацию с сенатом и консулом Гнеем Помпеем. Первый сезон сериала "Рим" повествует об этом и последующих событиях времен правления Цезаря вплоть до трагических мартовских ид 44-го года. На фоне кровавых войн, безжалостных интриг и борьбы за власть, прикрываемой словами о возрождении Республики, рассказывается и о нелегкой участи простых людей. Двое ветеранов прославленного 13-го легиона - Луций Ворен и Тит Пуло пытаются вернуться к нормальной гражданской жизни, но мечтам о мире и покое не суждено сбыться. Красочные, яркие сцены, по словам создателей телесериала, отличаются максимальной исторической достоверностью. Дело не только в скрупулезном следовании деталям в создании костюмов и интерьеров. Авторам удалось передать дух эпохи с ее жестокими нравами, батальными сценами, обилием секса. Именно так создатели картины представляют себе последние годы правления Юлия Цезаря.

Качество: HDRip
Видео: XviD ~ 1400 Кбит/с, 720x400
Аудио: MP3, 2 ch, 128 Кбит/с
Продолжительность: 22 x ~ 00:53:00
Перевод: Авторский одноголосый - Дмитрий Пучков (Гоблин)

Скриншоты


MediaInfo

Полное имя : E:\Rome (2005-2007)_ [tahiy]\01_ [sezon]\Rome.[S01E01]_ [tahiy].avi
Формат : AVI
Формат/Информация : Audio Video Interleave
Размер файла : 538 Мбайт
Продолжительность : 52 м. 17 с.
Общий поток : 1439 Кбит/сек
Программа кодирования : VirtualDubMod 1.5.10.3 | www.virtualdub-fr.org || (build 2550/release)
Библиотека кодирования : VirtualDubMod build 2550/release
Видео
Идентификатор : 0
Формат : MPEG-4 Visual
Профиль формата : Advanced Simple@L5
Настройки формата : BVOP1
Параметр BVOP формата : 1
Параметр QPel формата : Нет
Параметр GMC формата : Без точки перехода
Параметр матрицы формата : Default (MPEG)
Идентификатор кодека : XVID
Идентификатор кодека/Подсказка : XviD
Продолжительность : 52 м. 17 с.
Битрейт : 1301 Кбит/сек
Ширина : 720 пикселей
Высота : 400 пикселей
Соотношение сторон : 16:9
Частота кадров : 23,976 (24000/1001) кадра/сек
Цветовое пространство : YUV
Субдискретизация насыщенности : 4:2:0
Битовая глубина : 8 бит
Тип развёртки : Прогрессивная
Метод сжатия : С потерями
Бит/(Пиксели*Кадры) : 0.188
Размер потока : 487 Мбайт (90%)
Библиотека кодирования : XviD 73
Аудио
Идентификатор : 1
Формат : MPEG Audio
Версия формата : Version 1
Профиль формата : Layer 3
Настройки формата : Joint stereo
Идентификатор кодека : 55
Идентификатор кодека/Подсказка : MP3
Продолжительность : 52 м. 17 с.
Вид битрейта : Постоянный
Битрейт : 128 Кбит/сек
Каналы : 2 канала
Частота : 48,0 КГц
Частота кадров : 41,667 кадра/сек (1152 SPF)
Метод сжатия : С потерями
Размер потока : 47,9 Мбайт (9%)
Выравнивание : Соединение по промежуткам
Продолжительность промежутка : 42 мс. (1,00 видеокадр)
Время предзагрузки промежутка : 504 мс.
Библиотека кодирования : LAME3.99r
Настройки программы : -m j -V 4 -q 2 -lowpass 17 -b 128
Релиз от:
[Profile] [PM]
Display posts:    
Reply to topic

Current time is: 13-Nov 03:52

All times are UTC + 3



You cannot post new topics in this forum
You cannot reply to topics in this forum
You cannot edit your posts in this forum
You cannot delete your posts in this forum
You cannot vote in polls in this forum
You cannot attach files in this forum
You cannot download files in this forum