Зловещие звуки / Th'dread Rattlin' (2018) WEBRip

Reply to topic
 
Author Message

Monk ®

Gender: Male

Longevity: 11 months 5 days

Posts: 9032

Location: Казань

Post 24-Nov-2018 11:01

[Quote]

Зловещие звуки / Th'dread Rattlin' Год выпуска: 2018
Жанр: Ужасы, драма
Выпущено: Великобритания, Nightpiece Films
Режиссер: Ал Карретта
В ролях: Ал Карретта, Меган Пурвис, Мелани Барсело, Хлоя Бооэнс, Клеменс Керинг, Аннабель Лэнйон, Элизабет Качиа, Джо МакГрудди, Дженнифер Харви-Френч, Софи Пейн
О фильме: Необъяснимое творится в лесу близ небольшого городка. Местные жители говорят, что там нечто просыпается, а через какое-то время вновь впадает в спячку. Но когда наступает момент пробуждения, оно разносится повсюду, принося с собой ужас и зловещие звуки.

Качество: WEBRip
Видео: XviD, 1090 Кбит/с, 720x400
Аудио: AC3, 2 ch, 384 Кбит/с
Продолжительность: 01:19:15
Перевод: Любительский двухголосый [Фенек]
Есть реклама

Скриншоты


MediaInfo

General
Complete name : K:Thdread_Rattlin_2018_WEBRip_fennec_studio.avi
Format : AVI
Format/Info : Audio Video Interleave
File size : 842 MiB
Duration : 1 h 19 min
Overall bit rate : 1 485 kb/s
Writing application : Lavf58.22.100
Video
ID : 0
Format : MPEG-4 Visual
Format profile : Advanced Simple@L5
Format settings : BVOP1
Format settings, BVOP : 1
Format settings, QPel : No
Format settings, GMC : No warppoints
Format settings, Matrix : Default (H.263)
Codec ID : XVID
Codec ID/Hint : XviD
Duration : 1 h 19 min
Bit rate : 1 091 kb/s
Width : 720 pixels
Height : 400 pixels
Display aspect ratio : 16:9
Frame rate : 23.976 (24000/1001) FPS
Color space : YUV
Chroma subsampling : 4:2:0
Bit depth : 8 bits
Scan type : Progressive
Compression mode : Lossy
Bits/(Pixel*Frame) : 0.158
Stream size : 618 MiB (73%)
Writing library : Lavc58.39.100
Audio
ID : 1
Format : AC-3
Format/Info : Audio Coding 3
Commercial name : Dolby Digital
Codec ID : 2000
Duration : 1 h 19 min
Bit rate mode : Constant
Bit rate : 384 kb/s
Channel(s) : 2 channels
Channel layout : L R
Sampling rate : 48.0 kHz
Frame rate : 31.250 FPS (1536 SPF)
Bit depth : 16 bits
Compression mode : Lossy
Stream size : 218 MiB (26%)
Alignment : Aligned on interleaves
Interleave, duration : 32 ms (0.77 video frame)
Service kind : Complete Main
[Profile] [PM]
Display posts:    
Reply to topic

Current time is: 19-Oct 16:34

All times are UTC + 3



You cannot post new topics in this forum
You cannot reply to topics in this forum
You cannot edit your posts in this forum
You cannot delete your posts in this forum
You cannot vote in polls in this forum
You cannot attach files in this forum
You cannot download files in this forum