Ментовские войны. Харьков [1-40 серии из 40] (2018) WEB-DL 720p от Files-x

Reply to topic
 
Author Message

Nicodem ®

Gender: Male

Longevity: 7 months 8 days

Posts: 178

Post 17-Nov-2018 14:32

[Quote]

Ментовские войны. Харьков
Год выпуска: 2018
Жанр: Детектив, криминал, боевик, триллер
Выпущено: Украина, "1+1 Продакшн" по заказу телеканала 2+2
Режиссер: Валерий Рожко, Тарас Рыбальченко
В ролях: Артем Позняк, Богдан Юсипчук, Сергей Листунов, Танита Малкова, Анастасия Рула
О фильме: Это продолжение культовой саги про отважных, харизматичных и справедливых сотрудников уголовного розыска. Троица верных своему делу друзей – руководитель уголовного розыска Харьковского ГУВД Андрей Гордиенко, Богдан Харченко и Дмитрий Воронов каждый день принимают сложные вызовы криминального мира: запутанные убийства, вооруженные нападения, подлость в рядах силовиков и смертельно опасные задания. С холодным умом и отвагой они всегда пытаются быть объективными, но когда мишенью бандитов становятся близкие люди, героям все труднее избегать ошибок…Особенно тяжело им будут даваться дела, в которых замешаны «оборотни в погонах» - сотрудники структур, которые должны защищать граждан, а не наоборот. Новый сезон должен понравится вам еще больше за два предыдущих проекта, действия которых разворачивались в Одессе и Киеве. К тому же, вы сможете испытать свои силы в решении запутанных дел – вдруг, вы поймете, кто именно является преступником, раньше, чем главные герои сериала?
Качество: WEB-DL 720p
Видео: MPEG-4 AVC, ~ 1763 Кбит/с, 1280x720, 25 Кадр/с
Аудио: AC3, 2 ch, 192 Кбит/с
Продолжительность: 40 x ~ 00:47:00
Перевод: Не требуется
Cубтитры: нет

Скриншоты


MediaInfo

Общее
Уникальный идентификатор : 317333475620640993136224899615905279301 (0xEEBC344D5C4717392ADED702EBE7ED45)
Полное имя : C:\Users\DOM\Desktop\ВИДЕО\Ментовские войны. Харьков.2018.WEB-DL (720p).by.Nicodem.Files-x\01.Ментовские войны. Харьков.2018.WEB-DL (720p).by.Nicodem.Files-x.mkv
Формат : Matroska
Размер файла : 660 Мбайт
Продолжительность : 46 м.
Общий поток : 1995 Кбит/сек
Программа кодирования : Lavf56.36.100
Библиотека кодирования : Lavf56.36.100
Видео
Идентификатор : 1
Формат : AVC
Формат/Информация : Advanced Video Codec
Профиль формата : High@L3.1
Параметр CABAC формата : Да
Параметр ReFrames формата : 3 кадра
Идентификатор кодека : V_MPEG4/ISO/AVC
Продолжительность : 46 м.
Битрейт : 1763 Кбит/сек
Ширина : 1280 пикс.
Высота : 720 пикс.
Соотношение сторон : 16:9
Частота кадров : 25,000 кадр/сек
Цветовое пространство : YUV
Подвыборка цветности : 4:2:0
Битовая глубина : 8 бит
Тип развёртки : Прогрессивная
Бит/(Пиксели*Кадры) : 0.077
Размер потока : 583 Мбайт (88%)
Язык : English
Аудио
Идентификатор : 2
Формат : AC-3
Формат/Информация : Audio Coding 3
Расширение режима : CM (complete main)
Идентификатор кодека : A_AC3
Продолжительность : 46 м.
Вид битрейта : Постоянный
Битрейт : 192 Кбит/сек
Каналы : 2 канала
Расположение каналов : Front: L R
Частота : 48,0 КГц
Битовая глубина : 16 бит
Метод сжатия : С потерями
Размер потока : 63,5 Мбайт (10%)
Язык : English / un

Содержание

(1-4) серии "Стая"
(5-8) серии "Бойтесь своих желаний"
(9-12) серии "Стервятники"
(13-16) серии "Игра на вылет"
(17-20) серии "Гадюка под камнем"
(21-24) серии "Око за око"
(25-28) серии "Пуля для курьера"
(29-32) серии "За гранью зла"
(33-36) серии "Баварские мстители"
(37-40) серии "Наживка в капкане"
Релиз от:
[Profile] [PM]
Display posts:    
Reply to topic

Current time is: 26-Jun 13:59

All times are UTC + 3



You cannot post new topics in this forum
You cannot reply to topics in this forum
You cannot edit your posts in this forum
You cannot delete your posts in this forum
You cannot vote in polls in this forum
You cannot attach files in this forum
You cannot download files in this forum