Годунов [1 сезон: серии 1-8 из 8] (2018) HDTV 1080p от Generalfilm

Reply to topic
 
Author Message

Winchester96 ®

Gender: Male

Longevity: 5 months 11 days

Posts: 12

Location: Казахстан

Post 17-Nov-2018 14:37

[Quote]

Годунов [1 сезон: серии 1-8 из 8] (2018)
Год выпуска: 2018 г.
Жанр: Драма, история
Выпущено: Россия
Режиссер: Алексей Андрианов , Тимур Алпатов
В ролях: Сергей Безруков (Борис Годунов), Сергей Маковецкий (Иван Грозный), Анна Михалкова (Ирина Годунова), Светлана Ходченкова (Мария Годунова), Виктор Сухоруков (Малюта Скуратов), Андрей Мерзликин (Василий Шуйский), Александр Устюгов (Фёдор Романов), Ирина Пегова (Мария Нагая), Владимир Стеклов, Антон Кузнецов (Богдан Бельский), Александр Семчев, Федор Лавров
О фильме: Фильм о семье Годуновых, который охватывает период со времени правления Ивана Грозного до восшествия на престол Михаила Романова.
Качество: HDTV 1080p
Видео: AVC, 1920x1080 (16:9), 7050 kbps, 25 fps, 0,136 bpp
Аудио: AC3 / 2.0 / 48 kHz / 192 kbps /
Продолжительность: 00:50:27
Перевод: Не требуется
Cубтитры: нет

Скриншоты

MediaInfo

General
Unique ID : 230663566058227180682774630953920982295 (0xAD882FD85AEE1F608C0B6C2DE4636D17)
Complete name : E:Запись с твGodunov 2018.HDTV 1080p.RG GeneralFilmGodunov.s01.e01.2018.HDTV 1080p.by.White Smoke.R.G.Generalfilm.mkv
Format : Matroska
Format version : Version 4 / Version 2
File size : 2.53 GiB
Duration : 50 min
Overall bit rate mode : Constant
Overall bit rate : 7 164 kb/s
Movie name : Godunov.s01.e01.2018.HDTV 1080p.by.White Smoke.R.G.Generalfilm.mkv
Encoded date : UTC 2018-11-05 22:36:49
Writing application : mkvmerge v6.8.0 ('Theme for Great Cities') 64bit built on Mar 2 2014 21:34:26
Writing library : libebml v1.3.0 + libmatroska v1.4.1
Cover : Yes
Attachments : cover.png
Video
ID : 1
Format : AVC
Format/Info : Advanced Video Codec
Format profile : High@L4.1
Format settings, CABAC : Yes
Format settings, ReFrames : 3 frames
Format settings, GOP : M=3, N=33
Codec ID : V_MPEG4/ISO/AVC
Duration : 50 min
Bit rate mode : Constant
Bit rate : 7 051 kb/s
Width : 1 920 pixels
Height : 1 080 pixels
Display aspect ratio : 16:9
Frame rate mode : Constant
Frame rate : 25.000 FPS
Standard : PAL
Color space : YUV
Chroma subsampling : 4:2:0
Bit depth : 8 bits
Scan type : Progressive
Bits/(Pixel*Frame) : 0.136
Stream size : 2.41 GiB (95%)
Default : Yes
Forced : No
Color range : Limited
Color primaries : BT.709
Transfer characteristics : BT.709
Matrix coefficients : BT.709
Audio
ID : 2
Format : AC-3
Format/Info : Audio Coding 3
Mode extension : CM (complete main)
Format settings, Endianness : Big
Codec ID : A_AC3
Duration : 50 min
Bit rate mode : Constant
Bit rate : 192 kb/s
Channel(s) : 2 channels
Channel positions : Front: L R
Sampling rate : 48.0 kHz
Frame rate : 31.250 FPS (1536 spf)
Compression mode : Lossy
Stream size : 69.3 MiB (3%)
Default : Yes
Forced : No
Релиз от:
[Profile] [PM]
Display posts:    
Reply to topic

Current time is: 25-Apr 08:18

All times are UTC + 3



You cannot post new topics in this forum
You cannot reply to topics in this forum
You cannot edit your posts in this forum
You cannot delete your posts in this forum
You cannot vote in polls in this forum
You cannot attach files in this forum
You cannot download files in this forum