Прекрасные создания [1-2 серии из 2] (2018) HDTVRip от Files-x

Ответить на тему
 
Автор Сообщение

Nicodem ®

Пол: Мужской

Стаж: 4 месяца 7 дней

Сообщений: 178

Создавать темы 24-Ноя-2018 12:42

[Цитировать]

Прекрасные создания
Год выпуска: 2018
Жанр: Мелодрама
Выпущено: Россия, Кинокомпания "Калейдоскоп Фильм", Кинокомпания "ГРИФОН"
Режиссер: Максим Субботин
В ролях: Юлия Подозёрова, Владислав Шкляев, Анастасия Акатова, Нил Кропалов, Дмитрий Муляр, Екатерина Малахит, Алёна Козырева, Виктор Рябов, Алексей Котовщиков, Иван Латушко, Наталья Третьякова, Владимир Верёвочкин, Максим Битюков, Анна Галлямова, Сергей Кириченко
О фильме: Анна и Ксюша - жена и дочь нечистого на руку провинциального миллионера, узнают, что отец их семейства сбежал, скрываясь от полиции. Дом и машины конфискованы, счета заморожены, но женщины придумывают невероятный план: они продают оставшееся имущество и едут в Москву на поиски обеспеченных мужчин в надежде выгодно выйти замуж. Привыкшие к тепличным условиям, Анна и Ксения сталкиваются с реальной жизнью, которая оказывается совсем не такой дружелюбной, как они себе представляли. Вчерашние светские львицы вынуждены жить в Подмосковье, устроиться на работу и учиться жить по средствам. Героини упорно ищут лёгкой жизни, а к своему счастью находят любовь.

Качество: HDTVRip
Видео: XviD, ~ 2038 Кбит/с, 720x400, 25 кадр/с
Аудио: AC3, 2 ch, 192 Кбит/с
Продолжительность: 2 х 01:29:00
Перевод: Не требуется
Cубтитры: нет

Скриншоты


MediaInfo

General
Complete name : C:\Users\DOM\Downloads\Прекрасные создания .2018.HDTVRip.Files-x\01.Прекрасные создания .2018.HDTVRip.Files-x.avi
Format : AVI
Format/Info : Audio Video Interleave
File size : 1.37 GiB
Duration : 1h 27mn
Overall bit rate : 2 240 Kbps
Writing application : VirtualDubMod 1.5.10.3 | www.virtualdub-fr.org || (build 2550/release)
Writing library : VirtualDubMod build 2550/release
Video
ID : 0
Format : MPEG-4 Visual
Format profile : Advanced Simple@L5
Format settings, BVOP : 1
Format settings, QPel : No
Format settings, GMC : No warppoints
Format settings, Matrix : Custom
Codec ID : XVID
Codec ID/Hint : XviD
Duration : 1h 27mn
Bit rate : 2 038 Kbps
Width : 720 pixels
Height : 400 pixels
Display aspect ratio : 16:9
Frame rate : 25.000 fps
Color space : YUV
Chroma subsampling : 4:2:0
Bit depth : 8 bits
Scan type : Progressive
Compression mode : Lossy
Bits/(Pixel*Frame) : 0.283
Stream size : 1.25 GiB (91%)
Writing library : XviD 73
Audio
ID : 1
Format : AC-3
Format/Info : Audio Coding 3
Mode extension : CM (complete main)
Codec ID : 2000
Duration : 1h 27mn
Bit rate mode : Constant
Bit rate : 192 Kbps
Channel(s) : 2 channels
Channel positions : Front: L R
Sampling rate : 48.0 KHz
Bit depth : 16 bits
Compression mode : Lossy
Stream size : 120 MiB (9%)
Alignment : Split accross interleaves
Interleave, duration : 40 ms (1.00 video frame)
Interleave, preload duration : 500 ms
Релиз от:

Релиз подготовлен R.G.Files-x

[Профиль] [ЛС]
Показать сообщения:    
Ответить на тему

Текущее время: 25-Мар 13:51

Часовой пояс: UTC + 3



Вы не можете начинать темы
Вы не можете отвечать на сообщения
Вы не можете редактировать свои сообщения
Вы не можете удалять свои сообщения
Вы не можете голосовать в опросах
Вы не можете прикреплять файлы к сообщениям
Вы не можете скачивать файлы