Учителя [1-8 серии из 8] (2014) HDTVRip-AVC от Files-x

Reply to topic
 
Author Message

papa1951deda ®

Gender: Male

Longevity: 1 year

Posts: 407

Location: Казахстан

Post 24-Nov-2018 15:26

[Quote]

Учителя Год выпуска: 2014
Жанр: Мелодрама
Выпущено: «ВИМ СТУДИО»
Режиссёр: Вардан Акопян
В ролях: Марк Богатырёв, Ольга Красько, Ирина Розанова, Алика Смехова, Валерий Баринов, Анастасия Панина, Ольга Мокшина, Лилия Кондрова, Ольга Житник, Сергей Фролов
Описание: Неудачная шутка во время выпуска ток-шоу "Поболтаем?" стоила его ведущему Арсению Платонову карьеры. Вчерашняя звезда, он возвращается к маме в небольшой подмосковный городок. Новый директор школы, которую десять лет назад заканчивал Арсений, рад встретить столь уважаемого и популярного человека в местном баре. И настойчиво приглашает Платонова в школу - провести несколько факультативов для старшеклассников на тему "Секреты успеха".
Качество: HDTVRip-AVC
Видео: MPEG 4 AVC, ~ 2000 Кбит/с, 1024x576, 25 кадр/с
Аудио: AAC, 2 ch, 192 Кбит/с
Продолжительность: 8 x ~ 00:50:00
Перевод: Не требуется
Субтитры: Нет

Скриншоты

MediaInfo

Общее
Уникальный идентификатор : 204139318574054188289553166483263175795 (0x9993CD7A43B3CDB19C1496F573F1BC73)
Полное имя : H:\ФИЛЬМЫ\Учителя HDTVRip AVC\Учителя 01_серия_HDTVRip_AVC_by_Серый1779.mkv
Формат : Matroska
Версия формата : Version 2
Размер файла : 824 Мбайт
Продолжительность : 48 м.
Общий поток : 2385 Кбит/сек
Дата кодирования : UTC 2014-09-05 20:38:53
Программа кодирования : mkvmerge v6.1.0 ('Old Devil') built on Mar 4 2013 09:10:42
Библиотека кодирования : libebml v1.3.0 + libmatroska v1.4.0
Видео
Идентификатор : 1
Формат : AVC
Формат/Информация : Advanced Video Codec
Профиль формата : High@L4.1
Параметр CABAC формата : Да
Параметр ReFrames формата : 9 кадров
Идентификатор кодека : V_MPEG4/ISO/AVC
Продолжительность : 48 м.
Битрейт : 2000 Кбит/сек
Ширина : 1024 пикселя
Высота : 576 пикселей
Соотношение сторон : 16:9
Режим частоты кадров : Постоянный
Частота кадров : 25,000 кадров/сек
Цветовое пространство : YUV
Субдискретизация насыщенности : 4:2:0
Битовая глубина : 8 бит
Тип развёртки : Прогрессивная
Бит/(Пиксели*Кадры) : 0.136
Размер потока : 675 Мбайт (82%)
Библиотека кодирования : x264 core 130 r2273 b3065e6
Настройки программы : cabac=1 / ref=9 / deblock=1:-2:-1 / analyse=0x3:0x133 / me=umh / subme=9 / psy=1 / psy_rd=1.00:0.15 / mixed_ref=1 / me_range=32 / chroma_me=1 / trellis=2 / 8x8dct=1 / cqm=0 / deadzone=21,11 / fast_pskip=0 / chroma_qp_offset=-3 / threads=3 / lookahead_threads=1 / sliced_threads=0 / nr=0 / decimate=1 / interlaced=0 / bluray_compat=0 / constrained_intra=0 / bframes=9 / b_pyramid=2 / b_adapt=2 / b_bias=0 / direct=1 / weightb=1 / open_gop=0 / weightp=2 / keyint=250 / keyint_min=25 / scenecut=40 / intra_refresh=0 / rc=2pass / mbtree=0 / bitrate=2000 / ratetol=1.0 / qcomp=0.60 / qpmin=0 / qpmax=69 / qpstep=4 / cplxblur=20.0 / qblur=0.5 / ip_ratio=1.40 / pb_ratio=1.30 / aq=2:1.00
Default : Да
Forced : Нет
Основные цвета : BT.709
Характеристики трансфера : BT.709
Коэффициенты матрицы : BT.709
Аудио
Идентификатор : 2
Формат : AC-3
Формат/Информация : Audio Coding 3
Расширение режима : CM (complete main)
Параметр Endianness формата : Big
Идентификатор кодека : A_AC3
Продолжительность : 48 м.
Вид битрейта : Постоянный
Битрейт : 384 Кбит/сек
Каналы : 6 каналов
Расположение каналов : Front: L C R, Side: L R, LFE
Частота : 48,0 КГц
Битовая глубина : 16 бит
Метод сжатия : С потерями
Размер потока : 133 Мбайт (16%)
Default : Да
Forced : Нет

h264 log

x264 [info]: frame I:815 Avg QP:17.99 size: 83999
x264 [info]: frame P:19022 Avg QP:20.38 size: 20132
x264 [info]: frame B:52585 Avg QP:22.15 size: 5182
x264 [info]: consecutive B-frames: 3.1% 3.6% 8.6% 63.2% 8.7% 10.5% 1.3% 0.6% 0.2% 0.1%
x264 [info]: mb I I16..4: 6.8% 68.8% 24.4%
x264 [info]: mb P I16..4: 1.8% 8.0% 1.4% P16..4: 48.1% 17.0% 15.3% 0.7% 0.2% skip: 7.6%
x264 [info]: mb B I16..4: 0.1% 0.5% 0.1% B16..8: 33.9% 6.7% 1.8% direct: 4.8% skip:52.0% L0:36.1% L1:47.2% BI:16.7%
x264 [info]: 8x8 transform intra:71.1% inter:60.4%
x264 [info]: coded y,uvDC,uvAC intra: 80.2% 85.9% 61.7% inter: 15.7% 25.1% 3.1%
x264 [info]: i16 v,h,dc,p: 34% 19% 8% 38%
x264 [info]: i8 v,h,dc,ddl,ddr,vr,hd,vl,hu: 16% 13% 7% 7% 10% 12% 11% 12% 12%
x264 [info]: i4 v,h,dc,ddl,ddr,vr,hd,vl,hu: 16% 15% 4% 7% 12% 13% 12% 10% 11%
x264 [info]: i8c dc,h,v,p: 36% 24% 23% 16%
x264 [info]: Weighted P-Frames: Y:4.1% UV:2.8%
x264 [info]: ref P L0: 51.4% 13.4% 17.3% 4.6% 4.3% 3.1% 2.7% 1.4% 1.6% 0.2% 0.0%
x264 [info]: ref B L0: 83.8% 9.0% 3.1% 1.4% 1.0% 0.9% 0.5% 0.2%
x264 [info]: ref B L1: 95.6% 4.4%
x264 [info]: kb/s:1999.12
x264 [total]: encoded 72422 frames, 4.22 fps, 1999.12 kb/s
Релиз от:
[Profile] [PM]

Post 24-Nov-2018 18:34 (after 3 hours)

Топик был перенесен из форума Русскоязычные в форум Отечественные сериалы от RG Files-x
Серый1779
 
Display posts:    
Reply to topic

Current time is: 08-Dec 07:03

All times are UTC + 3



You cannot post new topics in this forum
You cannot reply to topics in this forum
You cannot edit your posts in this forum
You cannot delete your posts in this forum
You cannot vote in polls in this forum
You cannot attach files in this forum
You cannot download files in this forum